[ Сегодня идет свободное скачивание без начисления Download ]


Статистика раздачи
Нет
 
   
 
Top  
 
 
Морское приключение / Boat Trip (2002) WEB-DLRip-AVC Информация о фильме
Название: Морское приключение
Оригинальное название: Boat Trip
Год выхода: 2002
Жанр: комедия, приключения
Режиссер: Морт Нэтан
В ролях: Кьюба Гудинг, Орасио Санс, Розелин Санчес, Вивика А. Фокс, Морис Годен, Роджер Мур, Лин Шэй, Виктория Сильвстедт, Кен Хадсон Кэмпбелл, Зен Геснер, Уильям Бумиллер, Ноа Йорк, Ричард Раундтри, Боб Гантон, Дженнифер Гэрис, Стивен Портер, Ли Хэгмен, Джерри Коллинз, Арти Лэнг, Филип Кревой, Эдди Дрисколл, Стив Хадсон, Эндрю Уилан, Брайан Поллак, Норман Кревой, Сесиль Кревой, Эрика Джонсон
О фильме: Покинутый любимой девушкой, Джерри получает от своего друга предложение зализать раны и отправиться в морское путешествие на корабле, битком набитом роскошными девушками. Проблемы начинаются с того момента, когда друзья понимают, что это круиз только для мужчин, среди которых – эксцентричный миллионер, положивший глаз на Ника. Но не все так плохо и жизнь начинает приобретать яркие краски и бурлить после того, как корабль подбирает шлюпку с великолепными девушками из Шведской Бикини Команды…

Страна: Германия, США
Студия: Motion Picture Corporation of America (MPCA)
Продолжительность: 01:36:59
Перевод: Дублированный, профессиональный многоголосый, авторский
Файл
Кодек: h.264
Качество: WEB-DLRip-AVC
Видео: 2743 Кбит/с, 1024x576, 23.976 кадр/с
Звук:
• №1: Русский (AC3, 2 ch, 192 Кбит/с) Дублированный
• №2: Русский (AC3, 6 ch, 384 Кбит/с) Профессиональный многоголосый №1
• №3: Русский (AC3, 6 ch, 384 Кбит/с) Профессиональный многоголосый №2
• №4: Русский (AC3, 2 ch, 192 Кбит/с) Профессиональный многоголосый №3
• №5: Русский (AC3, 2 ch, 192 Кбит/с) Авторский [Евгений Рудой]
• №6: Английский (AC3, 6 ch, 384 Кбит/с)
Субтитры: Русские форсированные (на фрагменты без перевода), русские, английские

MediaInfo

------------------------------------------------------------------------------------------------------
x264 [info]: frame I:1090 Avg QP:17.19 size: 80723
x264 [info]: frame P:37927 Avg QP:19.95 size: 27477
x264 [info]: frame B:100498 Avg QP:22.19 size: 8598
x264 [info]: consecutive B-frames: 2.4% 5.8% 6.0% 75.0% 5.6% 4.0% 0.5% 0.3% 0.1% 0.1% 0.0% 0.0% 0.0% 0.2%
------------------------------------------------------------------------------------------------------
Полное имя : Boat.Trip.-Unrated-.2002.x364.WEB-DLRip-AVC.0ptimus.mkv
Формат : Matroska
Версия формата : Version 2
Размер файла : 3,03 Гбайт
Продолжительность : 1 ч. 36 м.
Общий поток : 4473 Кбит/сек
Название фильма : Морское приключение | Boat Trip (Unrated) [2002] -= WEB-DLRip (AVC) by 0ptimus =-
Дата кодирования : UTC 2015-10-23 18:16:55
Программа кодирования : mkvmerge v6.6.0 ('The Edge Of The In Between') built on Dec 1 2013 17:55:00
Библиотека кодирования : libebml v1.3.0 + libmatroska v1.4.1
Видео
Идентификатор : 1
Формат : AVC
Формат/Информация : Advanced Video Codec
Профиль формата : High@L4.1
Параметр CABAC формата : Да
Параметр ReFrames формата : 8 кадров
Идентификатор кодека : V_MPEG4/ISO/AVC
Продолжительность : 1 ч. 36 м.
Битрейт : 2743 Кбит/сек
Ширина : 1024 пикселя
Высота : 576 пикселей
Соотношение сторон : 16:9
Режим частоты кадров : Постоянный
Частота кадров : 23,976 кадра/сек
Цветовое пространство : YUV
Субдискретизация насыщенности : 4:2:0
Битовая глубина : 8 бит
Тип развёртки : Прогрессивная
Бит/(Пиксели*Кадры) : 0.194
Размер потока : 1,80 Гбайт (59%)
Заголовок : Rip by 0ptimus
Библиотека кодирования : x264 core 133 r2334 a3ac64b
Настройки программы : cabac=1 / ref=8 / deblock=1:-3:-3 / analyse=0x3:0x113 / me=umh / subme=11 / psy=1 / psy_rd=1.00:0.20 / mixed_ref=1 / me_range=48 / chroma_me=1 / trellis=2 / 8x8dct=1 / cqm=0 / deadzone=21,11 / fast_pskip=0 / chroma_qp_offset=-3 / threads=6 / lookahead_threads=1 / sliced_threads=0 / nr=0 / decimate=0 / interlaced=0 / bluray_compat=0 / constrained_intra=0 / bframes=13 / b_pyramid=2 / b_adapt=2 / b_bias=0 / direct=3 / weightb=1 / open_gop=0 / weightp=2 / keyint=240 / keyint_min=23 / scenecut=40 / intra_refresh=0 / rc_lookahead=40 / rc=2pass / mbtree=0 / bitrate=2743 / ratetol=1.0 / qcomp=0.60 / qpmin=0 / qpmax=69 / qpstep=4 / cplxblur=20.0 / qblur=0.5 / vbv_maxrate=50000 / vbv_bufsize=50000 / nal_hrd=none / ip_ratio=1.40 / pb_ratio=1.30 / aq=1:1.00
Язык : English
Default : Да
Forced : Да
Аудио #1
Идентификатор : 2
Формат : AC-3
Формат/Информация : Audio Coding 3
Расширение режима : CM (complete main)
Параметр Endianness формата : Big
Идентификатор кодека : A_AC3
Продолжительность : 1 ч. 36 м.
Вид битрейта : Постоянный
Битрейт : 192 Кбит/сек
Каналы : 2 канала
Расположение каналов : Front: L R
Частота : 48,0 КГц
Битовая глубина : 16 бит
Метод сжатия : С потерями
Размер потока : 133 Мбайт (4%)
Заголовок : Дублированный AC3 2.0 @ 192 kbps
Язык : Russian
Default : Да
Forced : Да
Аудио #2
Идентификатор : 3
Формат : AC-3
Формат/Информация : Audio Coding 3
Расширение режима : CM (complete main)
Параметр Endianness формата : Big
Идентификатор кодека : A_AC3
Продолжительность : 1 ч. 36 м.
Вид битрейта : Постоянный
Битрейт : 384 Кбит/сек
Каналы : 6 каналов
Расположение каналов : Front: L C R, Side: L R, LFE
Частота : 48,0 КГц
Битовая глубина : 16 бит
Метод сжатия : С потерями
Размер потока : 266 Мбайт (9%)
Заголовок : Многоголосый AC3 5.1 @ 384 kbps
Язык : Russian
Default : Нет
Forced : Нет
Аудио #3
Идентификатор : 4
Формат : AC-3
Формат/Информация : Audio Coding 3
Расширение режима : CM (complete main)
Параметр Endianness формата : Big
Идентификатор кодека : A_AC3
Продолжительность : 1 ч. 36 м.
Вид битрейта : Постоянный
Битрейт : 384 Кбит/сек
Каналы : 6 каналов
Расположение каналов : Front: L C R, Side: L R, LFE
Частота : 48,0 КГц
Битовая глубина : 16 бит
Метод сжатия : С потерями
Размер потока : 266 Мбайт (9%)
Заголовок : Многоголосый AC3 5.1 @ 384 kbps
Язык : Russian
Default : Нет
Forced : Нет
Аудио #4
Идентификатор : 5
Формат : AC-3
Формат/Информация : Audio Coding 3
Расширение режима : CM (complete main)
Параметр Endianness формата : Big
Идентификатор кодека : A_AC3
Продолжительность : 1 ч. 36 м.
Вид битрейта : Постоянный
Битрейт : 192 Кбит/сек
Каналы : 2 канала
Расположение каналов : Front: L R
Частота : 48,0 КГц
Битовая глубина : 16 бит
Метод сжатия : С потерями
Размер потока : 133 Мбайт (4%)
Заголовок : Многоголосый AC3 2.0 @ 192 kbps
Язык : Russian
Default : Нет
Forced : Нет
Аудио #5
Идентификатор : 6
Формат : AC-3
Формат/Информация : Audio Coding 3
Расширение режима : CM (complete main)
Параметр Endianness формата : Big
Идентификатор кодека : A_AC3
Продолжительность : 1 ч. 36 м.
Вид битрейта : Постоянный
Битрейт : 192 Кбит/сек
Каналы : 2 канала
Расположение каналов : Front: L R
Частота : 48,0 КГц
Битовая глубина : 16 бит
Метод сжатия : С потерями
Размер потока : 133 Мбайт (4%)
Заголовок : Авторский [Евгений Рудой] AC3 2.0 @ 192 kbps
Язык : Russian
Default : Нет
Forced : Нет
Аудио #6
Идентификатор : 7
Формат : AC-3
Формат/Информация : Audio Coding 3
Расширение режима : CM (complete main)
Параметр Endianness формата : Big
Идентификатор кодека : A_AC3
Продолжительность : 1 ч. 36 м.
Вид битрейта : Постоянный
Битрейт : 384 Кбит/сек
Каналы : 6 каналов
Расположение каналов : Front: L C R, Side: L R, LFE
Частота : 48,0 КГц
Битовая глубина : 16 бит
Метод сжатия : С потерями
Размер потока : 266 Мбайт (9%)
Заголовок : AC3 5.1 @ 384 kbps
Язык : English
Default : Нет
Forced : Нет
Текст #1
Идентификатор : 8
Формат : UTF-8
Идентификатор кодека : S_TEXT/UTF8
Идентификатор кодека/Информация : UTF-8 Plain Text
Заголовок : Форсированные
Язык : Russian
Default : Да
Forced : Да
Текст #2
Идентификатор : 9
Формат : UTF-8
Идентификатор кодека : S_TEXT/UTF8
Идентификатор кодека/Информация : UTF-8 Plain Text
Язык : Russian
Default : Нет
Forced : Нет
Текст #3
Идентификатор : 10
Формат : UTF-8
Идентификатор кодека : S_TEXT/UTF8
Идентификатор кодека/Информация : UTF-8 Plain Text
Язык : English
Default : Нет
Forced : Нет
Меню
00:00:00.000 : en:Chapter 1
00:01:44.000 : en:Chapter 2
00:09:27.000 : en:Chapter 3
00:18:51.000 : en:Chapter 4
00:25:41.000 : en:Chapter 5
00:33:57.000 : en:Chapter 6
00:41:23.000 : en:Chapter 7
00:51:00.000 : en:Chapter 8
01:00:44.000 : en:Chapter 9
01:11:36.000 : en:Chapter 10
01:20:15.000 : en:Chapter 11
01:27:38.000 : en:Chapter 12
01:32:56.000 : en:Chapter 13

Скриншоты



[Цитировать]



Показать сообщения:    

Текущее время: 02-Дек 22:56

Часовой пояс: UTC + 3


Вы не можете начинать темы
Вы не можете отвечать на сообщения
Вы не можете редактировать свои сообщения
Вы не можете удалять свои сообщения
Вы не можете голосовать в опросах
Вы не можете прикреплять файлы к сообщениям
Вы не можете скачивать файлы

!ВНИМАНИЕ!
Сайт не предоставляет электронные версии произведений, а занимается лишь коллекционированием и каталогизацией ссылок, присылаемых и публикуемых на форуме нашими читателями. Если вы являетесь правообладателем какого-либо представленного материала и не желаете, чтобы ссылка на него находилась в нашем каталоге, свяжитесь с нами, и мы незамедлительно удалим ее. Файлы для обмена на трекере предоставлены пользователями сайта, и администрация не несет ответственности за их содержание. Просьба не заливать файлы, защищенные авторскими правами, а также файлы нелегального содержания!