[ Сегодня идет свободное скачивание без начисления Download ]


Статистика раздачи
Нет
 
   
 
 
 
«Prepare to see it as never before»- Информация
Название: BBC: Планета Земля
Оригинальное название: Planet Earth
Год выхода: 2006
Жанр: Документальный
Режиссер: Аластер Фовергилл
Сценарий: Дэвид Аттенборо, Ванесса Берловиц, Аластер Фовергилл
Продюсер: Морин Лемир, Шеннон С. Мэлоун, Аластер Фовергилл
В ролях: Дэвид Аттэнборо, Mike Holding, Tanya Jenkins, Michael Kelem, Марк Линфилд, Peter Perlstein
- Страна: Великобритания-Сюжет:
Создатели сериала «Голубая планета» сняли новый фильм, показывающий Землю такой, какой ее еще никто не видел прежде. Невероятные по красоте пейзажи и самые заповедные и малоизученные уголки нашей планеты. Четыре года напряженной работы и беспрецедентный для документального фильма бюджет позволили создать уникальный по масштабности фильм. А революционные режимы сверхскоростной съемки и детализации картинки, сделали возможным показать великолепие нашей природы во всех подробностях.-

От полюса до полюса / From Pole to Pole

Файл
Кодек: MPEG4/ISO/AVC H.264
Формат: MKV
Качество: BDRip 1080p 60fps
Видео: 1920 x 1080 (1.778) | 59.940 fps | 30.0 Мбит/сек
Аудио 1: AC3 | 2.0 | 48 kHz | 192 kbps | 16 bit | Николай Дроздов |
Аудио 2: AC3 | 5.1 | 48 kHz | 448 kbps | 16 bit | ENG |
Продолжительность: 00:51:10
-

MedifInfo

Видео
Идентификатор : 1
Формат : AVC
Формат/Информация : Advanced Video Codec
Профиль формата : High@L4.2
Параметр CABAC формата : Да
Параметр ReFrames формата : 3 кадра
Параметр GOP формата : M=3, N=59
Идентификатор кодека : V_MPEG4/ISO/AVC
Продолжительность : 51 м.
Вид битрейта : Переменный
Битрейт : 28,6 Мбит/сек
Максимальный битрейт : 30,0 Мбит/сек
Ширина : 1920 пикселей
Высота : 1080 пикселей
Соотношение сторон : 16:9
Режим частоты кадров : Постоянный
Частота кадров : 59,880 кадров/сек
Частота кадров в оригинале : 59,940 кадров/сек
Стандарт вещания : PAL
Цветовое пространство : YUV
Субдискретизация насыщенности : 4:2:0
Битовая глубина : 8 бит
Тип развёртки : Прогрессивная
Бит/(Пиксели*Кадры) : 0.230
Размер потока : 10,2 Гбайт (96%)
Заголовок : www.60-fps.org
Язык : English
Default : Да
Forced : Нет
Основные цвета : BT.709
Характеристики трансфера : BT.709
Коэффициенты матрицы : BT.709
colour_range : Limited
Аудио #1
Идентификатор : 2
Формат : AC-3
Формат/Информация : Audio Coding 3
Профиль формата : Dolby Digital
Расширение режима : CM (complete main)
Параметр Endianness формата : Big
Идентификатор кодека : A_AC3
Продолжительность : 51 м.
Вид битрейта : Постоянный
Битрейт : 192 Кбит/сек
Каналы : 2 канала
Расположение каналов : Front: L R
Частота : 48,0 КГц
Битовая глубина : 16 бит
Метод сжатия : С потерями
Размер потока : 70,4 Мбайт (1%)
Заголовок : Николай Дроздов
Default : Да
Forced : Нет
Аудио #2
Идентификатор : 3
Формат : AC-3
Формат/Информация : Audio Coding 3
Расширение режима : CM (complete main)
Параметр Endianness формата : Big
Идентификатор кодека : A_AC3
Продолжительность : 51 м.
Вид битрейта : Постоянный
Битрейт : 448 Кбит/сек
Каналы : 6 каналов
Расположение каналов : Front: L C R, Side: L R, LFE
Частота : 48,0 КГц
Битовая глубина : 16 бит
Метод сжатия : С потерями
Размер потока : 164 Мбайт (2%)
Заголовок : eng
Default : Нет
Forced : Нет

Скриншоты





Горы / Mountains

Файл
Кодек: MPEG4/ISO/AVC H.264
Формат: MKV
Качество: BDRip 1080p 60fps
Видео: 1920 x 1080 (1.778) | 59.940 fps | 30.0 Мбит/сек
Аудио 1: AC3 | 2.0 | 48 kHz | 192 kbps | 16 bit | Николай Дроздов |
Аудио 2: AC3 | 5.1 | 48 kHz | 448 kbps | 16 bit | ENG |
Продолжительность: 00:50:01
-

MedifInfo

Видео
Идентификатор : 1
Формат : AVC
Формат/Информация : Advanced Video Codec
Профиль формата : High@L4.2
Параметр CABAC формата : Да
Параметр ReFrames формата : 3 кадра
Параметр GOP формата : M=3, N=59
Идентификатор кодека : V_MPEG4/ISO/AVC
Продолжительность : 50 м.
Вид битрейта : Переменный
Битрейт : 29,0 Мбит/сек
Максимальный битрейт : 30,0 Мбит/сек
Ширина : 1920 пикселей
Высота : 1080 пикселей
Соотношение сторон : 16:9
Режим частоты кадров : Постоянный
Частота кадров : 59,880 кадров/сек
Частота кадров в оригинале : 59,940 кадров/сек
Стандарт вещания : PAL
Цветовое пространство : YUV
Субдискретизация насыщенности : 4:2:0
Битовая глубина : 8 бит
Тип развёртки : Прогрессивная
Бит/(Пиксели*Кадры) : 0.234
Размер потока : 10,1 Гбайт (96%)
Заголовок : www.60-fps.org
Язык : English
Default : Да
Forced : Нет
Основные цвета : BT.709
Характеристики трансфера : BT.709
Коэффициенты матрицы : BT.709
colour_range : Limited
Аудио #1
Идентификатор : 2
Формат : AC-3
Формат/Информация : Audio Coding 3
Профиль формата : Dolby Digital
Расширение режима : CM (complete main)
Параметр Endianness формата : Big
Идентификатор кодека : A_AC3
Продолжительность : 50 м.
Вид битрейта : Постоянный
Битрейт : 192 Кбит/сек
Каналы : 2 канала
Расположение каналов : Front: L R
Частота : 48,0 КГц
Битовая глубина : 16 бит
Метод сжатия : С потерями
Размер потока : 68,7 Мбайт (1%)
Заголовок : Николай Дроздов
Default : Да
Forced : Нет
Аудио #2
Идентификатор : 3
Формат : AC-3
Формат/Информация : Audio Coding 3
Расширение режима : CM (complete main)
Параметр Endianness формата : Big
Идентификатор кодека : A_AC3
Продолжительность : 50 м.
Вид битрейта : Постоянный
Битрейт : 448 Кбит/сек
Каналы : 6 каналов
Расположение каналов : Front: L C R, Side: L R, LFE
Частота : 48,0 КГц
Битовая глубина : 16 бит
Метод сжатия : С потерями
Размер потока : 160 Мбайт (1%)
Заголовок : eng
Default : Нет
Forced : Нет

Скриншоты





Пресная вода / Fresh Water

Скоро будет.
Добавлена вторая серия . Перекачайте торрент файл.

[Цитировать]



Показать сообщения:    

Текущее время: 09-Дек 04:57

Часовой пояс: UTC + 3


Вы не можете начинать темы
Вы не можете отвечать на сообщения
Вы не можете редактировать свои сообщения
Вы не можете удалять свои сообщения
Вы не можете голосовать в опросах
Вы не можете прикреплять файлы к сообщениям
Вы не можете скачивать файлы

!ВНИМАНИЕ!
Сайт не предоставляет электронные версии произведений, а занимается лишь коллекционированием и каталогизацией ссылок, присылаемых и публикуемых на форуме нашими читателями. Если вы являетесь правообладателем какого-либо представленного материала и не желаете, чтобы ссылка на него находилась в нашем каталоге, свяжитесь с нами, и мы незамедлительно удалим ее. Файлы для обмена на трекере предоставлены пользователями сайта, и администрация не несет ответственности за их содержание. Просьба не заливать файлы, защищенные авторскими правами, а также файлы нелегального содержания!