[ Сегодня идет свободное скачивание без начисления Download ]


Статистика раздачи
Нет
 
   
 
Top  
 
 
Миссия невыполнима: Племя изгоев / Mission: Impossible - Rogue Nation (2015) WEB-DL [H.264/720p-LQ] [Line]
«Go rogue»
- Производство: США, Китай | Paramount Pictures, Skydance Productions, Bad Robot
Жанр: Боевик, Приключения, Триллер
Режиссер: Кристофер МакКуорри
Продюсер: Джей Джей Абрамс, Брайан Берк, Том Круз
Актеры: Том Круз, Джереми Реннер, Саймон Пегг, Алек Болдуин, Ребекка Фергюсон, Винг Реймз, Шон Харрис, Америка Оливо, Саймон МакБерни, Чжан Цзинчу
Описание:
Когда ОМН распускают, и Итан Хант остается не у дел, его команда неожиданно сталкивается с разветвленной международной сетью высокопрофессиональных спецагентов — Синдикатом. Это «племя изгоев» одержимо идеей установления нового мирового порядка и планирует серию разрушительных терактов. Итан и компания объединяются с дискредитированным британским агентом Илсой Фауст и приступают к своей самой невыполнимой миссии, понимая, что каждый из них может оказаться на стороне Синдиката.
Дата мировой премьеры: 23 июля 2015
Дата премьеры в России: 6 августа 2015, «Централ Партнершип»
Продолжительность: 02:11:23
Качество видео: WEB-DL [H.264/720p-LQ]
Перевод: Дублированный (чистый звук)
Субтитры: Отсутствуют
Видео: MPEG-4 AVC/H.264, 3 932 Kbps, 1280x534
Аудио 1: AC3, 48.0 KHz, 2 ch, 256 Kbps, CBR (Русский)
Аудио 2: AC3, 48.0 KHz, 6 ch, 384 Kbps, CBR (Английский)

Mediainfo:

General
Unique ID                                : 230561085351328925288889912903614731520 (0xAD747327FBDB28089D32D52D7D9E1500)
Complete name                            : Mission.Impossible.Rogue Nation WEB DL 720p.2015.D .mkv
Format                                   : Matroska
Format version                           : Version 2
File size                                : 4.29 GiB
Duration                                 : 2h 11mn
Overall bit rate                         : 4 665 Kbps
Movie name                               : EVO
Encoded date                             : UTC 2015-10-27 12:48:29
Writing application                      : mkvmerge v8.3.0 ('Over the Horizon') 64bit
Writing library                          : libebml v1.3.1 + libmatroska v1.4.2
DURATION                                 : 02:11:33.120000000
NUMBER_OF_FRAMES                         : 246660
NUMBER_OF_BYTES                          : 378869760
_STATISTICS_WRITING_APP                  : mkvmerge v8.3.0 ('Over the Horizon') 64bit
_STATISTICS_WRITING_DATE_UTC             : 2015-10-27 12:48:29
_STATISTICS_TAGS                         : BPS DURATION NUMBER_OF_FRAMES NUMBER_OF_BYTES
Video
ID                                       : 2
Format                                   : AVC
Format/Info                              : Advanced Video Codec
Format profile                           : Main@L3.1
Format settings, CABAC                   : No
Format settings, ReFrames                : 2 frames
Codec ID                                 : V_MPEG4/ISO/AVC
Duration                                 : 2h 11mn
Bit rate                                 : 3 932 Kbps
Width                                    : 1 280 pixels
Height                                   : 534 pixels
Display aspect ratio                     : 2.40:1
Frame rate mode                          : Constant
Frame rate                               : 23.976 fps
Color space                              : YUV
Chroma subsampling                       : 4:2:0
Bit depth                                : 8 bits
Scan type                                : Progressive
Bits/(Pixel*Frame)                       : 0.240
Stream size                              : 3.62 GiB (84%)
Language                                 : English
Default                                  : Yes
Forced                                   : No
Color primaries                          : BT.709
Transfer characteristics                 : BT.709
Matrix coefficients                      : BT.709
Audio #1
ID                                       : 1
Format                                   : AC-3
Format/Info                              : Audio Coding 3
Mode extension                           : CM (complete main)
Format settings, Endianness              : Big
Codec ID                                 : A_AC3
Duration                                 : 2h 11mn
Bit rate mode                            : Constant
Bit rate                                 : 256 Kbps
Channel count                            : 2 channels
Channel positions                        : Front: L R
Sampling rate                            : 48.0 KHz
Bit depth                                : 16 bits
Compression mode                         : Lossy
Stream size                              : 241 MiB (5%)
Language                                 : Russian
Default                                  : Yes
Forced                                   : No
Audio #2
ID                                       : 3
Format                                   : AC-3
Format/Info                              : Audio Coding 3
Mode extension                           : CM (complete main)
Format settings, Endianness              : Big
Codec ID                                 : A_AC3
Duration                                 : 2h 11mn
Bit rate mode                            : Constant
Bit rate                                 : 384 Kbps
Channel count                            : 6 channels
Channel positions                        : Front: L C R, Side: L R, LFE
Sampling rate                            : 48.0 KHz
Bit depth                                : 16 bits
Compression mode                         : Lossy
Stream size                              : 362 MiB (8%)
Language                                 : English
Default                                  : No
Forced                                   : No
Menu
00:00:00.000                             : en:1
00:09:52.000                             : en:2
00:20:44.000                             : en:3
00:25:31.000                             : en:4
00:31:59.000                             : en:5
00:40:02.000                             : en:6
00:49:34.000                             : en:7
01:01:00.000                             : en:8
01:09:50.000                             : en:9
01:20:20.000                             : en:10
01:29:28.000                             : en:11
01:38:31.000                             : en:12
01:48:18.000                             : en:13
01:57:13.000                             : en:14
02:03:01.000                             : en:15
Скриншоты:

[Цитировать]



Показать сообщения:    

Текущее время: 08-Дек 17:14

Часовой пояс: UTC + 3


Вы не можете начинать темы
Вы не можете отвечать на сообщения
Вы не можете редактировать свои сообщения
Вы не можете удалять свои сообщения
Вы не можете голосовать в опросах
Вы не можете прикреплять файлы к сообщениям
Вы не можете скачивать файлы

!ВНИМАНИЕ!
Сайт не предоставляет электронные версии произведений, а занимается лишь коллекционированием и каталогизацией ссылок, присылаемых и публикуемых на форуме нашими читателями. Если вы являетесь правообладателем какого-либо представленного материала и не желаете, чтобы ссылка на него находилась в нашем каталоге, свяжитесь с нами, и мы незамедлительно удалим ее. Файлы для обмена на трекере предоставлены пользователями сайта, и администрация не несет ответственности за их содержание. Просьба не заливать файлы, защищенные авторскими правами, а также файлы нелегального содержания!