[ Сегодня идет свободное скачивание без начисления Download ]


Статистика раздачи
Нет
 
   
 
Top  
 
 
Информация о фильме
Название: Подарок
Оригинальное название: The Gift
Год выхода: 2015
Жанр: Триллер, детектив
Режиссер: Джоэл Эдгертон
В ролях: Джейсон Бейтмен, Ребекка Холл, Джоэл Эдгертон, Эллисон Толман, Тим Гриффин, Бизи Филиппс, Адам Лазарр-Уайт, Бо Напп, Уенделл Пирс, Мирра Фолкс, Нэш Эдгертон, Дэвид Денман, Кэтрин Аселтон, Дэвид Джозеф Крэйг, Сьюзэн Мэй Прэтт, П.Дж. Бирн, Фелисити Прайс, Мелинда Аллен, Стэйси Бендер, Бет Круделе
О фильме:
В жизнь Саймона врывается человек из далекого прошлого – его бывший одноклассник Гордо. Человек дружелюбный, немного неуклюжий, но с большими странностями. До встречи с одноклассником Саймон и его молодая супруга Робин считали свою жизнь идеальной, однако Гордо вносит в жизнь молодоженов свои коррективы.

Страна: Австралия, США
Студия: Blue-Tongue Films, Blumhouse Productions
Продолжительность: 01:48:11
Перевод: Дублированный (Чистый звук)
Файл
Кодек: MPEG-4 AVC
Качество: BDRip 720p
Видео: 4763 Кбит/с, 1280x532
Звук: Русский (AC3, 2 ch, 384 Кбит/с), английский (AC3, 6 ch, 640 Кбит/с)
Субтитры: Английские
Aудио#1: Russian: 48 kHz, AC3, 2 (L,R) ch, ~384.00 kbps avg - Дублированный (Чистый звук)
Аудио#2: English: 48 kHz, AC3, 3/2 (L,C,R,l,r) + LFE ch, ~640.00 kbps avg - Оригинал
Субтитры: Английские

Инфо-файл

Формат : Matroska
Версия формата : Version 2
Размер файла : 4,46 Гбайт
Продолжительность : 1 ч. 48 м.
Общий поток : 5904 Кбит/сек
Название фильма : The.Gift.2015.x264.BDRip.720p.Rus.Eng
Дата кодирования : UTC 2015-10-27 17:14:15
Программа кодирования : mkvmerge v7.9.0 ('Birds') 64bit
Библиотека кодирования : libebml v1.3.1 + libmatroska v1.4.2
Видео
Идентификатор : 1
Формат : AVC
Формат/Информация : Advanced Video Codec
Профиль формата : High@L4.1
Параметр CABAC формата : Да
Параметр ReFrames формата : 10 кадров
Идентификатор кодека : V_MPEG4/ISO/AVC
Продолжительность : 1 ч. 48 м.
Битрейт : 4763 Кбит/сек
Ширина : 1280 пикселей
Высота : 532 пикселя
Соотношение сторон : 2,40:1
Режим частоты кадров : Постоянный
Частота кадров : 23,976 кадра/сек
Цветовое пространство : YUV
Субдискретизация насыщенности : 4:2:0
Битовая глубина : 8 бит
Тип развёртки : Прогрессивная
Бит/(Пиксели*Кадры) : 0.292
Размер потока : 3,60 Гбайт (81%)
Заголовок : The.Gift.2015.x264.BDRip.720p.Rus.Eng.by.StarbirS
Библиотека кодирования : x264 core 148 r2638 7599210
Настройки программы : cabac=1 / ref=10 / deblock=1:-3:-3 / analyse=0x3:0x133 / me=umh / subme=10 / psy=1 / psy_rd=1.05:0.15 / mixed_ref=1 / me_range=48 / chroma_me=1 / trellis=2 / 8x8dct=1 / cqm=0 / deadzone=21,11 / fast_pskip=0 / chroma_qp_offset=-3 / threads=12 / lookahead_threads=2 / sliced_threads=0 / nr=0 / decimate=0 / interlaced=0 / bluray_compat=0 / constrained_intra=0 / bframes=9 / b_pyramid=2 / b_adapt=2 / b_bias=0 / direct=3 / weightb=1 / open_gop=1 / weightp=2 / keyint=230 / keyint_min=23 / scenecut=60 / intra_refresh=0 / rc=crf / mbtree=0 / crf=18.0 / qcomp=0.70 / qpmin=0 / qpmax=69 / qpstep=4 / ip_ratio=1.40 / pb_ratio=1.30 / aq=1:0.80
Язык : English
Default : Да
Forced : Нет
Аудио #1
Идентификатор : 2
Формат : AC-3
Формат/Информация : Audio Coding 3
Расширение режима : CM (complete main)
Параметр Endianness формата : Big
Идентификатор кодека : A_AC3
Продолжительность : 1 ч. 48 м.
Вид битрейта : Постоянный
Битрейт : 384 Кбит/сек
Каналы : 2 канала
Расположение каналов : Front: L R
Частота : 48,0 КГц
Метод сжатия : С потерями
Размер потока : 297 Мбайт (7%)
Заголовок : Дублированный (Чистый звук)
Язык : Russian
Default : Да
Forced : Нет
Аудио #2
Идентификатор : 3
Формат : AC-3
Формат/Информация : Audio Coding 3
Расширение режима : CM (complete main)
Параметр Endianness формата : Big
Идентификатор кодека : A_AC3
Продолжительность : 1 ч. 48 м.
Вид битрейта : Постоянный
Битрейт : 640 Кбит/сек
Каналы : 6 каналов
Расположение каналов : Front: L C R, Side: L R, LFE
Частота : 48,0 КГц
Метод сжатия : С потерями
Размер потока : 495 Мбайт (11%)
Язык : English
Default : Нет
Forced : Нет
Текст #1
Идентификатор : 4
Формат : UTF-8
Идентификатор кодека : S_TEXT/UTF8
Идентификатор кодека/Информация : UTF-8 Plain Text
Заголовок : full
Язык : English
Default : Нет
Forced : Нет
Текст #2
Идентификатор : 5
Формат : UTF-8
Идентификатор кодека : S_TEXT/UTF8
Идентификатор кодека/Информация : UTF-8 Plain Text
Заголовок : SDH
Язык : English
Default : Нет
Forced : Нет
Меню
00:00:00.000 : en:00:00:00.000
00:05:55.355 : en:00:05:55.355
00:09:36.993 : en:00:09:36.993
00:18:31.027 : en:00:18:31.027
00:23:41.670 : en:00:23:41.670
00:28:26.079 : en:00:28:26.079
00:34:30.568 : en:00:34:30.568
00:39:48.428 : en:00:39:48.428
00:44:23.995 : en:00:44:23.995
00:49:57.203 : en:00:49:57.203
00:55:54.309 : en:00:55:54.309
01:01:51.291 : en:01:01:51.291
01:05:24.212 : en:01:05:24.212
01:11:21.736 : en:01:11:21.736
01:17:12.503 : en:01:17:12.503
01:21:44.274 : en:01:21:44.274
01:26:29.059 : en:01:26:29.059
01:30:06.276 : en:01:30:06.276
01:37:55.036 : en:01:37:55.036
01:42:56.629 : en:01:42:56.629

Скриншоты


[Цитировать]



Показать сообщения:    

Текущее время: 09-Дек 08:51

Часовой пояс: UTC + 3


Вы не можете начинать темы
Вы не можете отвечать на сообщения
Вы не можете редактировать свои сообщения
Вы не можете удалять свои сообщения
Вы не можете голосовать в опросах
Вы не можете прикреплять файлы к сообщениям
Вы не можете скачивать файлы

!ВНИМАНИЕ!
Сайт не предоставляет электронные версии произведений, а занимается лишь коллекционированием и каталогизацией ссылок, присылаемых и публикуемых на форуме нашими читателями. Если вы являетесь правообладателем какого-либо представленного материала и не желаете, чтобы ссылка на него находилась в нашем каталоге, свяжитесь с нами, и мы незамедлительно удалим ее. Файлы для обмена на трекере предоставлены пользователями сайта, и администрация не несет ответственности за их содержание. Просьба не заливать файлы, защищенные авторскими правами, а также файлы нелегального содержания!