[ Сегодня идет свободное скачивание без начисления Download ]


Статистика раздачи
Нет
 
   
 
Top  
 
 
Признания опасного человека / Confessions of a Dangerous Mind (2002) BDRip-AVC Страна: США, Германия, Канада
Жанр: триллер, драма, мелодрама, комедия, криминал, биография
Год выпуска: 2002
Продолжительность: 01:53:27
Перевод: Профессиональный (полное дублирование)
Субтитры: русские, английские
Оригинальная аудиодорожка: Английский
Режиссер: Джордж Клуни / George Clooney
В ролях: Сэм Рокуэлл, Дрю Бэрримор, Джордж Клуни, Джулия Робертс, Рутгер Хауэр, Мэгги Джилленхол, Дик Кларк, Мишель Суини, Челси Сеси, Майкл Сера, Айми Роуз Амброзиак, Изабель Блэ
Описание:
По автобиографической книге Чака Бэрриса. Чак Бэррис был автором популярнейших телевизионных развлекательных программ шестидесятых годов. Но не всегда у него дела шли гладко, и однажды, в период очередного кризиса, ему предлагает работу ЦРУ. Бэррису позарез нужны деньги и он соглашается.
Он проходит военную подготовку, где в совершенстве овладевает искусством профессионально отбирать человеческие жизни. Теперь он живет двумя жизнями: в одной он убивает тех, кого правительство сочло за врагов, а в другой он по-прежнему создатель рейтинговых телевизионных шоу.

Сэмпл
Качество видео: BDRip-AVC [Blu-ray Remux 1080p]
Формат видео: MKV
Видео кодек: AVC
Аудио кодек: AC3
Видео: 1855 Кбит/сек, 1080*450 (2,40:1), в 23,976 кадр/сек, AVC
Аудио #1: Russian, 448 Кбит/сек, 48,0 КГц, 16 бит, 6 канала(ов), AC-3
Аудио #2: English, 448 Кбит/сек, 48,0 КГц, 16 бит, 6 канала(ов), AC-3
Навигация по главам: есть

MediaInfo

Общее
Уникальный идентификатор : 248996921793716463895192143618119419658 (0xBB531011F998B6089E8147FF55D9C70A)
Полное имя : N:RipsConfessions of a Dangerous MindConfessions.of.a.Dangerous.Mind.2002.BDRip-AVC.Dub.2.18Gb...stalkerok.new-team.mkv
Формат : Matroska
Размер файла : 2,18 Гбайт
Продолжительность : 1 ч. 53 м.
Общий поток : 2751 Кбит/сек
Название фильма : Confessions of a Dangerous Mind (2002) (New-Team) (Rip by Stalker oK)
Дата кодирования : UTC 2015-10-27 19:02:18
Программа кодирования : mkvmerge v7.9.0 ('Birds') 64bit
Библиотека кодирования : libebml v1.3.1 + libmatroska v1.4.2
Видео
Идентификатор : 1
Формат : AVC
Формат/Информация : Advanced Video Codec
Профиль формата : High@L4.1
Параметр CABAC формата : Да
Параметр ReFrames формата : 12 кадры
Идентификатор кодека : V_MPEG4/ISO/AVC
Продолжительность : 1 ч. 53 м.
Битрейт : 1855 Кбит/сек
Ширина : 1080 пикс.
Высота : 450 пикс.
Соотношение сторон : 2,40:1
Частота кадров : 23,976 кадр/сек
Цветовое пространство : YUV
Подвыборка цветности : 4:2:0
Битовая глубина : 8 бит
Тип развёртки : Прогрессивная
Бит/(Пиксели*Кадры) : 0.159
Размер потока : 1,43 Гбайт (65%)
Заголовок : Confessions of a Dangerous Mind (2002) (New-Team) (Rip by Stalker oK)
Библиотека кодирования : x264 core 146 r2538kMod 121396c
Настройки программы : cabac=1 / ref=12 / deblock=1:-3:-3 / analyse=0x3:0x133 / me=umh / subme=11 / psy=1 / fade_compensate=0.00 / psy_rd=1.05:0.15 / mixed_ref=1 / me_range=48 / chroma_me=1 / trellis=2 / 8x8dct=1 / cqm=0 / deadzone=21,11 / fast_pskip=0 / chroma_qp_offset=-3 / threads=12 / lookahead_threads=3 / sliced_threads=0 / nr=0 / decimate=0 / interlaced=0 / bluray_compat=0 / constrained_intra=0 / fgo=0 / bframes=12 / b_pyramid=2 / b_adapt=2 / b_bias=0 / direct=3 / weightb=1 / open_gop=0 / weightp=2 / keyint=240 / keyint_min=23 / scenecut=40 / intra_refresh=0 / rc_lookahead=40 / rc=2pass / mbtree=0 / bitrate=1855 / ratetol=1.0 / qcomp=0.70 / qpmin=0 / qpmax=69 / qpstep=4 / cplxblur=20.0 / qblur=0.5 / vbv_maxrate=50000 / vbv_bufsize=62500 / nal_hrd=none / filler=0 / ip_ratio=1.40 / pb_ratio=1.30 / aq=3:0.92
Аудио #1
Идентификатор : 2
Формат : AC-3
Формат/Информация : Audio Coding 3
Расширение режима : CM (complete main)
Идентификатор кодека : A_AC3
Продолжительность : 1 ч. 53 м.
Вид битрейта : Постоянный
Битрейт : 448 Кбит/сек
Канал(ы) : 6 канала(ов)
Расположение каналов : Front: L C R, Side: L R, LFE
Частота : 48,0 КГц
Битовая глубина : 16 бит
Метод сжатия : С потерями
Размер потока : 364 Мбайт (16%)
Язык : Russian
Аудио #2
Идентификатор : 3
Формат : AC-3
Формат/Информация : Audio Coding 3
Расширение режима : CM (complete main)
Идентификатор кодека : A_AC3
Продолжительность : 1 ч. 53 м.
Вид битрейта : Постоянный
Битрейт : 448 Кбит/сек
Канал(ы) : 6 канала(ов)
Расположение каналов : Front: L C R, Side: L R, LFE
Частота : 48,0 КГц
Битовая глубина : 16 бит
Метод сжатия : С потерями
Размер потока : 364 Мбайт (16%)
Язык : English
Текст #1
Идентификатор : 4
Формат : UTF-8
Идентификатор кодека : S_TEXT/UTF8
Идентификатор кодека/Информация : UTF-8 Plain Text
Язык : Russian
Текст #2
Идентификатор : 5
Формат : UTF-8
Идентификатор кодека : S_TEXT/UTF8
Идентификатор кодека/Информация : UTF-8 Plain Text
Язык : English
Меню
00:00:00.000 : en:Chapter 1
00:06:04.197 : en:Chapter 2
00:10:02.393 : en:Chapter 3
00:15:29.177 : en:Chapter 4
00:20:42.450 : en:Chapter 5
00:24:13.576 : en:Chapter 6
00:31:17.875 : en:Chapter 7
00:37:56.900 : en:Chapter 8
00:44:18.447 : en:Chapter 9
00:52:12.755 : en:Chapter 10
00:56:36.684 : en:Chapter 11
01:03:24.634 : en:Chapter 12
01:07:37.052 : en:Chapter 13
01:15:31.985 : en:Chapter 14
01:25:24.368 : en:Chapter 15
01:34:39.298 : en:Chapter 16
01:41:51.689 : en:Chapter 17
01:46:28.548 : en:Chapter 18

[Цитировать]



Показать сообщения:    

Текущее время: 02-Дек 21:05

Часовой пояс: UTC + 3


Вы не можете начинать темы
Вы не можете отвечать на сообщения
Вы не можете редактировать свои сообщения
Вы не можете удалять свои сообщения
Вы не можете голосовать в опросах
Вы не можете прикреплять файлы к сообщениям
Вы не можете скачивать файлы

!ВНИМАНИЕ!
Сайт не предоставляет электронные версии произведений, а занимается лишь коллекционированием и каталогизацией ссылок, присылаемых и публикуемых на форуме нашими читателями. Если вы являетесь правообладателем какого-либо представленного материала и не желаете, чтобы ссылка на него находилась в нашем каталоге, свяжитесь с нами, и мы незамедлительно удалим ее. Файлы для обмена на трекере предоставлены пользователями сайта, и администрация не несет ответственности за их содержание. Просьба не заливать файлы, защищенные авторскими правами, а также файлы нелегального содержания!