[ Today is free to download without increasing Download ]

DL-List and Torrent activity
Тревоги первых птиц (1985) DVB Информация о фильме
Название: Тревоги первых птиц
Год выхода: 1985
Жанр: Драма
Режиссер: Диамара Нижниковская
В ролях: Борис Борисов, Евгений Меньшов, Марина Карманова, Светлана Тормахова, Иван Сидоров, Фёдор Валиков, Софья Горшкова, Антонина Бендова, Людмила Писарева, Наталия Дмитриева, Петр Солдатов, Николай Волков, Евгения Лыжина, Е. Донец, Юля Феофилова
О фильме:
1944 год. Сержант Василий Калина после госпиталя возвращается в родную деревню Пасторонь. Но не находит деревни: отступая, немцы сжигали все дома и минировали поля. Восстановлением хозяйства руководит бывший командир партизанского отряда Григорий Горовой. Он назначает Василия председателем колхоза. Вскоре Калина узнает, что Клавдия, которую он любил до войны, считая его погибшим, вышла замуж за Горового. Сложившаяся ситуация становится нелёгким испытанием для всех троих...
Страна: СССР
Студия: Беларусьфильм
Продолжительность: 01:24:57
Перевод: не требуется
Кодек: AVC (H264)
Качество: DVB
Видео: MPEG4 Video (H264) 720x576 (49:36) 25fps, 2 184 Kbps
Звук: MPEG Audio 48000Hz stereo 256kbps


Unique ID : 302298495584548988824841185082737879317 (0xE36C928DFAFDF6E63808155DDE52E915)
Complete name : D:Новая земля 2Художественные фильмыТревоги первых птиц (1985)Тревоги первых птиц (1985).mkv
Format : Matroska
Format version : Version 2
File size : 1.48 GiB
Duration : 1h 24mn
Overall bit rate : 2 489 Kbps
Writing application : Lavf52.64.2
Writing library : Lavf52.64.2
ID : 1
Format : AVC
Format/Info : Advanced Video Codec
Format profile : Main@L3.0
Format settings, CABAC : Yes
Format settings, ReFrames : 4 frames
Duration : 1h 24mn
Bit rate : 2 184 Kbps
Width : 720 pixels
Height : 576 pixels
Display aspect ratio : 4:3
Original display aspect ratio : 4:3
Frame rate mode : Constant
Frame rate : 25.000 fps
Standard : PAL
Color space : YUV
Chroma subsampling : 4:2:0
Bit depth : 8 bits
Scan type : MBAFF
Scan order : Top Field First
Bits/(Pixel*Frame) : 0.211
Stream size : 1.30 GiB (88%)
Default : Yes
Forced : No
Color primaries : BT.601 PAL
Transfer characteristics : BT.470 System B, BT.470 System G
Matrix coefficients : BT.601
Color range : Limited
ID : 2
Format : MPEG Audio
Format version : Version 1
Format profile : Layer 2
Codec ID : A_MPEG/L2
Codec ID/Hint : MP2
Duration : 1h 24mn
Bit rate mode : Constant
Bit rate : 256 Kbps
Channel(s) : 2 channels
Sampling rate : 48.0 KHz
Compression mode : Lossy
Stream size : 156 MiB (10%)
Language : English
Default : Yes
Forced : No


Display posts:    

Current time is: 26-Oct 14:19

All times are UTC + 3

You cannot post new topics in this forum
You cannot reply to topics in this forum
You cannot edit your posts in this forum
You cannot delete your posts in this forum
You cannot vote in polls in this forum
You cannot attach files in this forum
You cannot download files in this forum

The site does not give electronic versions of products, and is engaged only in a collecting and cataloguing of the references sent and published at a forum by our readers. If you are the legal owner of any submitted material and do not wish that the reference to it was in our catalogue, contact us and we shall immediately remove her. Files for an exchange on tracker are given by users of a site, and the administration does not bear the responsibility for their maintenance. The request to not fill in the files protected by copyrights, and also files of the illegal maintenance!