[ Сегодня идет свободное скачивание без начисления Download ]


Статистика раздачи
Нет
 
   
 
Top  
 
 
Тревоги первых птиц (1985) DVB Информация о фильме
Название: Тревоги первых птиц
Год выхода: 1985
Жанр: Драма
Режиссер: Диамара Нижниковская
В ролях: Борис Борисов, Евгений Меньшов, Марина Карманова, Светлана Тормахова, Иван Сидоров, Фёдор Валиков, Софья Горшкова, Антонина Бендова, Людмила Писарева, Наталия Дмитриева, Петр Солдатов, Николай Волков, Евгения Лыжина, Е. Донец, Юля Феофилова
О фильме:
1944 год. Сержант Василий Калина после госпиталя возвращается в родную деревню Пасторонь. Но не находит деревни: отступая, немцы сжигали все дома и минировали поля. Восстановлением хозяйства руководит бывший командир партизанского отряда Григорий Горовой. Он назначает Василия председателем колхоза. Вскоре Калина узнает, что Клавдия, которую он любил до войны, считая его погибшим, вышла замуж за Горового. Сложившаяся ситуация становится нелёгким испытанием для всех троих...
Страна: СССР
Студия: Беларусьфильм
Продолжительность: 01:24:57
Перевод: не требуется
Файл
Кодек: AVC (H264)
Качество: DVB
Видео: MPEG4 Video (H264) 720x576 (49:36) 25fps, 2 184 Kbps
Звук: MPEG Audio 48000Hz stereo 256kbps
Семпл

MediaInfo

General
Unique ID : 302298495584548988824841185082737879317 (0xE36C928DFAFDF6E63808155DDE52E915)
Complete name : D:Новая земля 2Художественные фильмыТревоги первых птиц (1985)Тревоги первых птиц (1985).mkv
Format : Matroska
Format version : Version 2
File size : 1.48 GiB
Duration : 1h 24mn
Overall bit rate : 2 489 Kbps
Writing application : Lavf52.64.2
Writing library : Lavf52.64.2
Video
ID : 1
Format : AVC
Format/Info : Advanced Video Codec
Format profile : Main@L3.0
Format settings, CABAC : Yes
Format settings, ReFrames : 4 frames
Codec ID : V_MPEG4/ISO/AVC
Duration : 1h 24mn
Bit rate : 2 184 Kbps
Width : 720 pixels
Height : 576 pixels
Display aspect ratio : 4:3
Original display aspect ratio : 4:3
Frame rate mode : Constant
Frame rate : 25.000 fps
Standard : PAL
Color space : YUV
Chroma subsampling : 4:2:0
Bit depth : 8 bits
Scan type : MBAFF
Scan order : Top Field First
Bits/(Pixel*Frame) : 0.211
Stream size : 1.30 GiB (88%)
Default : Yes
Forced : No
Color primaries : BT.601 PAL
Transfer characteristics : BT.470 System B, BT.470 System G
Matrix coefficients : BT.601
Color range : Limited
Audio
ID : 2
Format : MPEG Audio
Format version : Version 1
Format profile : Layer 2
Codec ID : A_MPEG/L2
Codec ID/Hint : MP2
Duration : 1h 24mn
Bit rate mode : Constant
Bit rate : 256 Kbps
Channel(s) : 2 channels
Sampling rate : 48.0 KHz
Compression mode : Lossy
Stream size : 156 MiB (10%)
Language : English
Default : Yes
Forced : No

[Цитировать]



Показать сообщения:    

Текущее время: 03-Дек 01:18

Часовой пояс: UTC + 3


Вы не можете начинать темы
Вы не можете отвечать на сообщения
Вы не можете редактировать свои сообщения
Вы не можете удалять свои сообщения
Вы не можете голосовать в опросах
Вы не можете прикреплять файлы к сообщениям
Вы не можете скачивать файлы

!ВНИМАНИЕ!
Сайт не предоставляет электронные версии произведений, а занимается лишь коллекционированием и каталогизацией ссылок, присылаемых и публикуемых на форуме нашими читателями. Если вы являетесь правообладателем какого-либо представленного материала и не желаете, чтобы ссылка на него находилась в нашем каталоге, свяжитесь с нами, и мы незамедлительно удалим ее. Файлы для обмена на трекере предоставлены пользователями сайта, и администрация не несет ответственности за их содержание. Просьба не заливать файлы, защищенные авторскими правами, а также файлы нелегального содержания!