[ Сегодня идет свободное скачивание без начисления Download ]


Статистика раздачи
Нет
 
   
 
Top  
 
 
Мэгги / Maggie (2015) BDRip 720p Информация о фильме
Название: Зараженная / Мэгги
Оригинальное название: Maggie
Год выхода: 2015
Жанр: ужасы, триллер, драма
Режиссер: Генри Хобсон
В ролях: Арнольд Шварценеггер, Эбигейл Бреслин, Джоэли Ричардсон, Лора Кайюэтт, Денис Уильямсон, Дж.Д. Эвермор, Рэден Грир, Дэна Гурье, Эми Брассетт, Эйден Флауэрс
О фильме: Девочка-подросток Мэгги заражается болезнью, медленно превращающей инфицированных в зомби. Правительство организует карантин для инфицированных, где их помещают в изоляцию. Её любящий отец не готов помещать её в карантин, и она живёт вместе с ним.

Выпущено: Швейцария, США / Lionsgate, Grindstone Entertainment Group, Gold Star Films
Продолжительность: 01:35:04
Озвучивание: Профессиональное (многоголосое) [iTunes]
Файл
Формат: MKV (x264)
Качество: BDRip 720p [HDAcces]
Видео: 6847 kb/s, 1280x534
Аудио: Russian: AC3, 384 kb/s (6 ch) / English: DTS, 1510 kb/s (6 ch)
Субтитры: English

МедиаИнфо

Format : Matroska
Format version : Version 4 / Version 2
File size : 5.92 GiB
Duration : 1h 35mn
Overall bit rate : 8 918 Kbps
Encoded date : UTC 2015-10-28 18:14:31
Writing application : mkvmerge v8.3.0 ('Over the Horizon') 64bit
Writing library : libebml v1.3.1 + libmatroska v1.4.2
Video
ID : 1
Format : AVC
Format/Info : Advanced Video Codec
Format profile : High@L4.1
Format settings, CABAC : Yes
Format settings, ReFrames : 12 frames
Codec ID : V_MPEG4/ISO/AVC
Duration : 1h 35mn
Bit rate : 6 847 Kbps
Width : 1 280 pixels
Height : 534 pixels
Display aspect ratio : 2.40:1
Frame rate mode : Constant
Frame rate : 23.976 fps
Color space : YUV
Chroma subsampling : 4:2:0
Bit depth : 8 bits
Scan type : Progressive
Bits/(Pixel*Frame) : 0.418
Stream size : 4.55 GiB (77%)
Writing library : x264 core 146 r2538 121396c
Encoding settings : cabac=1 / ref=12 / deblock=1:-3:-3 / analyse=0x3:0x133 / me=umh / subme=10 / psy=1 / psy_rd=1.00:0.00 / mixed_ref=1 / me_range=48 / chroma_me=1 / trellis=2 / 8x8dct=1 / cqm=0 / deadzone=21,11 / fast_pskip=1 / chroma_qp_offset=-2 / threads=16 / lookahead_threads=2 / sliced_threads=0 / nr=0 / decimate=1 / interlaced=0 / bluray_compat=0 / constrained_intra=0 / bframes=8 / b_pyramid=2 / b_adapt=2 / b_bias=0 / direct=3 / weightb=1 / open_gop=0 / weightp=2 / keyint=240 / keyint_min=23 / scenecut=40 / intra_refresh=0 / rc_lookahead=150 / rc=crf / mbtree=0 / crf=18.5 / qcomp=0.68 / qpmin=10 / qpmax=51 / qpstep=3 / vbv_maxrate=50000 / vbv_bufsize=62500 / crf_max=0.0 / nal_hrd=none / filler=0 / ip_ratio=1.20 / pb_ratio=1.30 / aq=2:0.60
Language : English
Default : Yes
Forced : No
Color range : Limited
Matrix coefficients : BT.709
Audio #1
ID : 2
Format : AC-3
Format/Info : Audio Coding 3
Mode extension : CM (complete main)
Format settings, Endianness : Big
Codec ID : A_AC3
Duration : 1h 35mn
Bit rate mode : Constant
Bit rate : 384 Kbps
Channel(s) : 6 channels
Channel positions : Front: L C R, Side: L R, LFE
Sampling rate : 48.0 KHz
Bit depth : 16 bits
Compression mode : Lossy
Stream size : 261 MiB (4%)
Language : Russian
Default : Yes
Forced : No
Audio #2
ID : 3
Format : DTS
Format/Info : Digital Theater Systems
Mode : 16
Format settings, Endianness : Big
Codec ID : A_DTS
Duration : 1h 35mn
Bit rate mode : Constant
Bit rate : 1 509 Kbps
Channel(s) : 6 channels
Channel positions : Front: L C R, Side: L R, LFE
Sampling rate : 48.0 KHz
Bit depth : 24 bits
Compression mode : Lossy
Stream size : 1.00 GiB (17%)
Language : English
Default : No
Forced : No
Text #1
ID : 4
Format : PGS
Muxing mode : zlib
Codec ID : S_HDMV/PGS
Codec ID/Info : Picture based subtitle format used on BDs/HD-DVDs
Language : English
Default : No
Forced : No
Text #2
ID : 5
Format : PGS
Muxing mode : zlib
Codec ID : S_HDMV/PGS
Codec ID/Info : Picture based subtitle format used on BDs/HD-DVDs
Language : English
Default : No
Forced : No
Menu
00:00:00.000 : en:00:00:00.000
00:05:52.936 : en:00:05:52.936
00:11:26.102 : en:00:11:26.102
00:15:55.121 : en:00:15:55.121
00:21:30.498 : en:00:21:30.498
00:26:50.609 : en:00:26:50.609
00:35:09.065 : en:00:35:09.065
00:39:17.939 : en:00:39:17.939
00:43:35.780 : en:00:43:35.780
00:50:51.131 : en:00:50:51.131
00:58:38.014 : en:00:58:38.014
01:02:09.517 : en:01:02:09.517
01:10:28.808 : en:01:10:28.808
01:17:32.189 : en:01:17:32.189
01:23:27.502 : en:01:23:27.502
01:26:38.693 : en:01:26:38.693

Скриншоты

[Цитировать]



Показать сообщения:    

Текущее время: 11-Дек 16:56

Часовой пояс: UTC + 3


Вы не можете начинать темы
Вы не можете отвечать на сообщения
Вы не можете редактировать свои сообщения
Вы не можете удалять свои сообщения
Вы не можете голосовать в опросах
Вы не можете прикреплять файлы к сообщениям
Вы не можете скачивать файлы

!ВНИМАНИЕ!
Сайт не предоставляет электронные версии произведений, а занимается лишь коллекционированием и каталогизацией ссылок, присылаемых и публикуемых на форуме нашими читателями. Если вы являетесь правообладателем какого-либо представленного материала и не желаете, чтобы ссылка на него находилась в нашем каталоге, свяжитесь с нами, и мы незамедлительно удалим ее. Файлы для обмена на трекере предоставлены пользователями сайта, и администрация не несет ответственности за их содержание. Просьба не заливать файлы, защищенные авторскими правами, а также файлы нелегального содержания!