[ Сегодня идет свободное скачивание без начисления Download ]


Статистика раздачи
Нет
 
   
 
Top  
 
 
Кто там? / Knock Knock (2015) BDRip 720p - Производство: Чили, США / Black Bear Pictures, Camp Grey, Dragonfly Entertainment
Жанр: Триллер
Режиссер: Элай Рот
Продюсер: Мигель Асенсио, Коллин Кэмп, Джон Т. Деграйе
Актеры: Киану Ривз, Лоренца Иззо, Ана Де Армас, Игнасия Алламанд, Аарон Барнс, Коллин Кэмп
Описание:
Отправив семью за город, архитектор Эван остается на выходных дома один доделывать срочный проект. К нему стучатся две милые молодые девушки лет двадцати, насквозь промокшие и заблудившиеся. Эван не мог предположить, что протянутая рука помощи обернется для него чередой изощренных издевательств, изысканных пыток и медленного садистского уничтожения семьи…

Релиз от: FAGOT100
Продолжительность: 01:39:19
Качество видео: BDRip 720p
Перевод: Любительский (двухголосый, закадровый) Raim&NastR, любительский (одноголосый, закадровый) ХиХиДок
Язык субтитров: Русский, английский, испанский, французский, итальянский
Вид субтитров: Вшитые, отключаемые
Видео: AVC, 1280x536 (2.35:1), 23.976 fps, 3 326 Kbps (0.202 bit/pixel)
Аудио #1: AC-3, 48.0 KHz, 2 ch, 128 Kbps, CBR (Russian) - двухголосый
Аудио #2: AC-3, 48.0 KHz, 6 ch, 448 Kbps, CBR (Russian) - одноголосый
Аудио #3: AC-3, 48.0 KHz, 6 ch, 448 Kbps, CBR (English)
Сэмпл
Скриншоты:

Mediainfo:

Формат : Matroska
Версия формата : Version 2
Размер файла : 3,08 Гбайт
Продолжительность : 1 ч. 39 м.
Общий поток : 4438 Кбит/сек
Дата кодирования : UTC 2015-10-29 04:57:30
Программа кодирования : mkvmerge v5.3.0 ('I could have danced') built on Feb 9 2012 10:38:07
Библиотека кодирования : libebml v1.2.3 + libmatroska v1.3.0
Attachment : Yes
Видео
Идентификатор : 1
Формат : AVC
Формат/Информация : Advanced Video Codec
Профиль формата : [email protected]
Параметр CABAC формата : Да
Параметр ReFrames формата : 10 кадров
Идентификатор кодека : V_MPEG4/ISO/AVC
Продолжительность : 1 ч. 39 м.
Битрейт : 3326 Кбит/сек
Ширина : 1280 пикселей
Высота : 536 пикселей
Соотношение сторон : 2,40:1
Режим частоты кадров : Постоянный
Частота кадров : 23,976 кадра/сек
Цветовое пространство : YUV
Субдискретизация насыщенности : 4:2:0
Битовая глубина : 8 бит
Тип развёртки : Прогрессивная
Бит/(Пиксели*Кадры) : 0.202
Размер потока : 2,31 Гбайт (75%)
Библиотека кодирования : x264 core 146 r2538 121396c
Настройки программы : cabac=1 / ref=10 / deblock=1:-3:-3 / analyse=0x3:0x133 / me=umh / subme=11 / psy=1 / psy_rd=1.00:0.00 / mixed_ref=1 / me_range=32 / chroma_me=1 / trellis=2 / 8x8dct=1 / cqm=0 / deadzone=21,11 / fast_pskip=0 / chroma_qp_offset=-2 / threads=12 / lookahead_threads=2 / sliced_threads=0 / nr=0 / decimate=0 / interlaced=0 / bluray_compat=0 / constrained_intra=0 / bframes=8 / b_pyramid=2 / b_adapt=2 / b_bias=0 / direct=3 / weightb=1 / open_gop=0 / weightp=2 / keyint=240 / keyint_min=23 / scenecut=40 / intra_refresh=0 / rc=crf / mbtree=0 / crf=18.0 / qcomp=0.60 / qpmin=0 / qpmax=69 / qpstep=4 / ip_ratio=1.40 / pb_ratio=1.30 / aq=1:1.00
Язык : English
Default : Да
Forced : Нет
Аудио #1
Идентификатор : 2
Формат : AC-3
Формат/Информация : Audio Coding 3
Расширение режима : CM (complete main)
Параметр Endianness формата : Big
Идентификатор кодека : A_AC3
Продолжительность : 1 ч. 39 м.
Вид битрейта : Постоянный
Битрейт : 128 Кбит/сек
Каналы : 2 канала
Расположение каналов : Front: L R
Частота : 48,0 КГц
Битовая глубина : 16 бит
Метод сжатия : С потерями
Размер потока : 90,9 Мбайт (3%)
Заголовок : Любительский (двухголосый, закадровый) Raim&NastR
Язык : Russian
Default : Да
Forced : Нет
Аудио #2
Идентификатор : 3
Формат : AC-3
Формат/Информация : Audio Coding 3
Расширение режима : CM (complete main)
Параметр Endianness формата : Big
Идентификатор кодека : A_AC3
Продолжительность : 1 ч. 39 м.
Вид битрейта : Постоянный
Битрейт : 448 Кбит/сек
Каналы : 6 каналов
Расположение каналов : Front: L C R, Side: L R, LFE
Частота : 48,0 КГц
Битовая глубина : 16 бит
Метод сжатия : С потерями
Размер потока : 318 Мбайт (10%)
Заголовок : Любительский (одноголосый, закадровый) ХиХиДок
Язык : Russian
Default : Нет
Forced : Нет
Аудио #3
Идентификатор : 4
Формат : AC-3
Формат/Информация : Audio Coding 3
Расширение режима : CM (complete main)
Параметр Endianness формата : Big
Идентификатор кодека : A_AC3
Продолжительность : 1 ч. 39 м.
Вид битрейта : Постоянный
Битрейт : 448 Кбит/сек
Каналы : 6 каналов
Расположение каналов : Front: L C R, Side: L R, LFE
Частота : 48,0 КГц
Битовая глубина : 16 бит
Метод сжатия : С потерями
Размер потока : 318 Мбайт (10%)
Язык : English
Default : Нет
Forced : Нет
Текст #1
Идентификатор : 5
Формат : UTF-8
Идентификатор кодека : S_TEXT/UTF8
Идентификатор кодека/Информация : UTF-8 Plain Text
Язык : Russian
Default : Нет
Forced : Нет
Текст #2
Идентификатор : 6
Формат : UTF-8
Идентификатор кодека : S_TEXT/UTF8
Идентификатор кодека/Информация : UTF-8 Plain Text
Язык : English
Default : Нет
Forced : Нет
Текст #3
Идентификатор : 7
Формат : UTF-8
Идентификатор кодека : S_TEXT/UTF8
Идентификатор кодека/Информация : UTF-8 Plain Text
Язык : Spanish
Default : Нет
Forced : Нет
Текст #4
Идентификатор : 8
Формат : UTF-8
Идентификатор кодека : S_TEXT/UTF8
Идентификатор кодека/Информация : UTF-8 Plain Text
Язык : French
Default : Нет
Forced : Нет
Текст #5
Идентификатор : 9
Формат : UTF-8
Идентификатор кодека : S_TEXT/UTF8
Идентификатор кодека/Информация : UTF-8 Plain Text
Язык : Italian
Default : Нет
Forced : Нет
Меню
00:00:00.000 : :Chapter 01
00:06:30.640 : :Chapter 02
00:12:59.987 : :Chapter 03
00:20:07.247 : :Chapter 04
00:27:20.388 : :Chapter 05
00:34:42.371 : :Chapter 06
00:42:41.934 : :Chapter 07
00:52:19.678 : :Chapter 08
01:01:50.081 : :Chapter 09
01:13:45.462 : :Chapter 10
01:25:48.560 : :Chapter 11
01:35:01.278 : :Chapter 12

[Цитировать]



Показать сообщения:    

Текущее время: 06-Дек 05:59

Часовой пояс: UTC + 3


Вы не можете начинать темы
Вы не можете отвечать на сообщения
Вы не можете редактировать свои сообщения
Вы не можете удалять свои сообщения
Вы не можете голосовать в опросах
Вы не можете прикреплять файлы к сообщениям
Вы не можете скачивать файлы

!ВНИМАНИЕ!
Сайт не предоставляет электронные версии произведений, а занимается лишь коллекционированием и каталогизацией ссылок, присылаемых и публикуемых на форуме нашими читателями. Если вы являетесь правообладателем какого-либо представленного материала и не желаете, чтобы ссылка на него находилась в нашем каталоге, свяжитесь с нами, и мы незамедлительно удалим ее. Файлы для обмена на трекере предоставлены пользователями сайта, и администрация не несет ответственности за их содержание. Просьба не заливать файлы, защищенные авторскими правами, а также файлы нелегального содержания!