[ Сегодня идет свободное скачивание без начисления Download ]


Статистика раздачи
Нет
 
   
 
Top  
 
 
Младенец на $30 000 000 / Bo bui gai wak / Rob-B-Hood (2006) Информация о фильме
Название: Младенец на $30 000 000
Оригинальное название: Bo bui gai wak / Rob-B-Hood
Год выхода: 2006
Жанр: боевик, комедия, драма
Режиссер: Бенни Чан / Benny Chan
В ролях: Джеки Чан, Луи Ку, Яньюань Гао, Майкл Хьюи, Биао Юен, Шарлин Чой, Бей Логан, Кен Ло, Николас Тце, Черри Ин, Теренс Йин и др.
О фильме:
Для бездельника и игрока Тонгза (Джеки Чан) есть только одна вещь пострашнее кредиторов под дверью – плачущий младенец. Но что если этот самый ребенок способен сделать его богатым? Сумеет ли Тонгз преодолеть свой панический страх перед памперсами, бутылочками со смесью и заунывными колыбельными? Тонгз вырос в бедной семье, а из школы его выгнали в подростковом возрасте. Несмотря на проворство и ловкость рук, он постоянно «на мели».
Отвергнутый семьей и преследуемый кредиторами, он поддается на уговоры жадного домовладельца (Майкл Хьюи), согласившись принять участие в его сумасбродных грабежах. Вместе с предприимчивым Осьминогом (Луис Ку) они похищают маленького внука крупного магната, однако, столкнувшись с непредвиденными затруднениями, не могут передать его триаде, как было запланировано вначале.
При участии красотки-няни Мелоди (Гао Юаньюань), помешанной на детях жены домовладельца (Тереза Карпио) и юной поклонницы Осьминога по имени Янь (Шарлин Чой), бравые парни открывает для себя радости материнства. Осознав, что триада охотится и за выкупом и за ребенком, они решают взять магы... лолетнего заложника под свою защиту. С одной стороны полиция, с другой – беспощадные гангстеры, и криминальное трио пускается в страшно опасные и очень смешные приключения, чтобы вернуть младенца обратно в колыбель.

Страна: Гонконг
Студия: Emperor Motion Pictures, JCE Movies, Huayi Brothers Media
Продолжительность: 2:06:16
Перевод: Профессиональный (двухголосый закадровый) (Гланц, Королёва)
Файл
Кодек: H.264
Качество: BDRip 720р от SuperMin
Видео: 1280х544 (2.35:1), 4479 Kbps, 23.976 fps
Звук: Русский (AC-3, 6ch, 448 kbps)

Лог

x264 [info]: frame I:1474 Avg QP:17.76 size: 99195
x264 [info]: frame P:39254 Avg QP:19.07 size: 43749
x264 [info]: frame B:140905 Avg QP:21.71 size: 17539
x264 [info]: consecutive B-frames: 1.5% 1.4% 4.3% 32.9% 19.3% 37.8% 1.6% 0.7% 0.4%
encoded 181633 frames, 2.72 fps, 4577.72 kb/s

MI

Video
ID : 1
Format : AVC
Format/Info : Advanced Video Codec
Format profile : [email protected]
Format settings, CABAC : Yes
Format settings, ReFrames : 10 frames
Codec ID : V_MPEG4/ISO/AVC
Duration : 2h 6mn
Bit rate : 4 479 Kbps
Width : 1 280 pixels
Height : 544 pixels
Display aspect ratio : 2.35:1
Frame rate mode : Constant
Frame rate : 23.976 fps
Color space : YUV
Chroma subsampling : 4:2:0
Bit depth : 8 bits
Scan type : Progressive
Bits/(Pixel*Frame) : 0.268
Stream size : 3.95 GiB (89%)
Writing library : x264 core 146 r2538 121396c
Encoding settings : cabac=1 / ref=10 / deblock=1:-2:-2 / analyse=0x3:0x113 / me=umh / subme=11 / psy=1 / psy_rd=1.00:0.00 / mixed_ref=1 / me_range=24 / chroma_me=1 / trellis=2 / 8x8dct=1 / cqm=0 / deadzone=21,11 / fast_pskip=0 / chroma_qp_offset=-2 / threads=4 / lookahead_threads=1 / sliced_threads=0 / nr=0 / decimate=1 / interlaced=0 / bluray_compat=0 / constrained_intra=0 / bframes=8 / b_pyramid=2 / b_adapt=2 / b_bias=0 / direct=3 / weightb=1 / open_gop=0 / weightp=2 / keyint=240 / keyint_min=22 / scenecut=40 / intra_refresh=0 / rc_lookahead=40 / rc=crf / mbtree=0 / crf=18.5 / qcomp=0.60 / qpmin=0 / qpmax=69 / qpstep=4 / vbv_maxrate=62500 / vbv_bufsize=78125 / crf_max=0.0 / nal_hrd=none / filler=0 / ip_ratio=1.40 / pb_ratio=1.30 / aq=1:1.00
Default : Yes
Forced : No
Audio
ID : 2
Format : AC-3
Format/Info : Audio Coding 3
Mode extension : CM (complete main)
Format settings, Endianness : Big
Codec ID : A_AC3
Duration : 2h 6mn
Bit rate mode : Constant
Bit rate : 448 Kbps
Channel(s) : 6 channels
Channel positions : Front: L C R, Side: L R, LFE
Sampling rate : 48.0 KHz
Compression mode : Lossy
Stream size : 405 MiB (9%)
Language : Russian
Default : Yes
Forced : No

Скриншоты

Скриншот исходника

[Цитировать]



Показать сообщения:    

Текущее время: 06-Дек 13:21

Часовой пояс: UTC + 3


Вы не можете начинать темы
Вы не можете отвечать на сообщения
Вы не можете редактировать свои сообщения
Вы не можете удалять свои сообщения
Вы не можете голосовать в опросах
Вы не можете прикреплять файлы к сообщениям
Вы не можете скачивать файлы

!ВНИМАНИЕ!
Сайт не предоставляет электронные версии произведений, а занимается лишь коллекционированием и каталогизацией ссылок, присылаемых и публикуемых на форуме нашими читателями. Если вы являетесь правообладателем какого-либо представленного материала и не желаете, чтобы ссылка на него находилась в нашем каталоге, свяжитесь с нами, и мы незамедлительно удалим ее. Файлы для обмена на трекере предоставлены пользователями сайта, и администрация не несет ответственности за их содержание. Просьба не заливать файлы, защищенные авторскими правами, а также файлы нелегального содержания!