[ Сегодня идет свободное скачивание без начисления Download ]


Статистика раздачи
Нет
 
   
 
Top  
 
 
Oleg Lav | Right Click Enhancer Professional - Редактор контекстного меню (2015) PCRec [H.264/720p] - Автор (режиссер): Oleg Lav
Жанр: Обучающее видео
Описание:
Right Click Enhancer Professional — создание волшебного меню правой кнопки мыши одна из тех программ кому нравится порядок, аккуратность и быстрота действий при работе с компьютером. Right Click Tweaker - позволит добавить в контекстное меню уже готовые твики. Right Click Shortcust Creator - добавляем новые папки, файлы, ярлыки приложений и быстрый доступ к различным командам пользователя в меню правой кнопки мыши.
Продолжительность: 00:05:49
Качество видео: PCRec
Видео: AVC/H.264, 1280x720, ~614 kbps
Аудио: AAC, 2 ch, 192 kbps, VBR

Mediainfo:

Общее
Полное имя : Right Click Enhancer Professional - Редактор контекстного меню_DK_.mp4
Формат : MPEG-4
Профиль формата : Base Media / Version 2
Идентификатор кодека : mp42
Размер файла : 33,7 Мбайт
Продолжительность : 5 м. 49 с.
Режим общего битрейта : Переменный
Общий поток : 809 Кбит/сек
Дата кодирования : UTC 2015-10-29 14:45:27
Дата пометки : UTC 2015-10-29 14:45:27
gsst : 0
gstd : 349273
gssd : B4A7D0D87
gshh : r7---sn-n8v7zn7s.googlevideo.com
Видео
Идентификатор : 1
Формат : AVC
Формат/Информация : Advanced Video Codec
Профиль формата : High@L3.1
Параметр CABAC формата : Да
Параметр ReFrames формата : 1 кадр
Идентификатор кодека : avc1
Идентификатор кодека/Информация : Advanced Video Coding
Продолжительность : 5 м. 49 с.
Битрейт : 614 Кбит/сек
Максимальный битрейт : 6169 Кбит/сек
Ширина : 1280 пикселей
Высота : 720 пикселей
Соотношение сторон : 16:9
Режим частоты кадров : Постоянный
Частота кадров : 30,000 кадров/сек
Цветовое пространство : YUV
Субдискретизация насыщенности : 4:2:0
Битовая глубина : 8 бит
Тип развёртки : Прогрессивная
Бит/(Пиксели*Кадры) : 0.022
Размер потока : 25,6 Мбайт (76%)
Дата кодирования : UTC 1904-01-01 00:00:00
Дата пометки : UTC 2015-10-29 14:45:28
Аудио
Идентификатор : 2
Формат : AAC
Формат/Информация : Advanced Audio Codec
Профиль формата : LC
Идентификатор кодека : 40
Продолжительность : 5 м. 49 с.
Вид битрейта : Переменный
Битрейт : 192 Кбит/сек
Максимальный битрейт : 201 Кбит/сек
Каналы : 2 канала
Расположение каналов : Front: L R
Частота : 44,1 КГц
Метод сжатия : С потерями
Размер потока : 7,99 Мбайт (24%)
Заголовок : IsoMedia File Produced by Google, 5-11-2011
Язык : English
Дата кодирования : UTC 2015-10-29 14:45:27
Дата пометки : UTC 2015-10-29 14:45:28

Дополнительная информация:

Официальный сайт
Пользовательские коды
Иконки
Скриншоты:

[Цитировать]



Показать сообщения:    

Текущее время: 10-Дек 15:43

Часовой пояс: UTC + 3


Вы не можете начинать темы
Вы не можете отвечать на сообщения
Вы не можете редактировать свои сообщения
Вы не можете удалять свои сообщения
Вы не можете голосовать в опросах
Вы не можете прикреплять файлы к сообщениям
Вы не можете скачивать файлы

!ВНИМАНИЕ!
Сайт не предоставляет электронные версии произведений, а занимается лишь коллекционированием и каталогизацией ссылок, присылаемых и публикуемых на форуме нашими читателями. Если вы являетесь правообладателем какого-либо представленного материала и не желаете, чтобы ссылка на него находилась в нашем каталоге, свяжитесь с нами, и мы незамедлительно удалим ее. Файлы для обмена на трекере предоставлены пользователями сайта, и администрация не несет ответственности за их содержание. Просьба не заливать файлы, защищенные авторскими правами, а также файлы нелегального содержания!