[ Сегодня идет свободное скачивание без начисления Download ]


Статистика раздачи
Нет
 
   
 
Top  
 
 
Последний вагон. Весна (2015) WEB-DL - Производство: Россия / Медиа группа EXIT production, Red Carpet Studio
Жанр: Триллер
Режиссер: Антон Калинкин
Продюсер: Дмитрий Ефремов, Владимир Пономаренко, Антон Калинкин
Актеры: Илья Любимов, Мария Андреева, Анна Чурина, Борис Хвошнянский, Тимофей Трибунцев, Петар Зекавица, Сергей Греков, Алексей Ингелевич, Сергей Комаров, Екатерина Маликова
Описание:
Главный герой Виктор — молодой тренер по боксу, у которого все великолепно: хорошая работа, красивая девушка рядом, веселые друзья. Однако жизнь приготовила ему серьезные испытания — в одну секунду все меняется и он становится главным подозреваемым в трех убийствах. Но судьба дает ему шанс…
Дата премьеры в России: 17 сентября 2015, «Кинография»
Продолжительность: 01:45:35
Качество видео: WEB-DL
Перевод: Не требуется (русский) iTunes
Субтитры: Отсутствуют
Видео: AVC/H.264, 1280x536, ~3934 Kb/s
Аудио: AC3, 6 ch, 384 kb/s

Mediainfo

Общее
Уникальный идентификатор                 : 198210648076837464611028339630816751089 (0x951DFB7442EB02C68D61B8B4C691EDF1)
Полное имя                               : Последний вагон. Весна (2015) WEB-DL 720p.mkv
Формат                                   : Matroska
Версия формата                           : Version 4 / Version 2
Размер файла                             : 3,25 Гбайт
Продолжительность                        : 1 ч. 45 м.
Общий поток                              : 4406 Кбит/сек
Дата кодирования                         : UTC 2015-11-01 15:30:10
Программа кодирования                    : mkvmerge v8.3.0 ('Over the Horizon') 64bit
Библиотека кодирования                   : libebml v1.3.1 + libmatroska v1.4.2
DURATION                                 : 01:45:35.648000000
NUMBER_OF_FRAMES                         : 197989
NUMBER_OF_BYTES                          : 304111104
_STATISTICS_WRITING_APP                  : mkvmerge v8.3.0 ('Over the Horizon') 64bit
_STATISTICS_WRITING_DATE_UTC             : 2015-11-01 15:30:10
_STATISTICS_TAGS                         : BPS DURATION NUMBER_OF_FRAMES NUMBER_OF_BYTES
Видео
Идентификатор                            : 1
Формат                                   : AVC
Формат/Информация                        : Advanced Video Codec
Профиль формата                          : [email protected]
Параметр CABAC формата                   : Нет
Параметр ReFrames формата                : 2 кадра
Идентификатор кодека                     : V_MPEG4/ISO/AVC
Продолжительность                        : 1 ч. 45 м.
Битрейт                                  : 3934 Кбит/сек
Ширина                                   : 1280 пикселей
Высота                                   : 536 пикселей
Соотношение сторон                       : 2,40:1
Режим частоты кадров                     : Постоянный
Частота кадров                           : 24,000 кадра/сек
Цветовое пространство                    : YUV
Субдискретизация насыщенности            : 4:2:0
Битовая глубина                          : 8 бит
Тип развёртки                            : Прогрессивная
Бит/(Пиксели*Кадры)                      : 0.239
Размер потока                            : 2,90 Гбайт (89%)
Язык                                     : Russian
Default                                  : Да
Forced                                   : Нет
Цветовой диапазон                        : Limited
Основные цвета                           : BT.709
Характеристики трансфера                 : BT.709
Коэффициенты матрицы                     : BT.709
Аудио
Идентификатор                            : 2
Формат                                   : AC-3
Формат/Информация                        : Audio Coding 3
Расширение режима                        : CM (complete main)
Параметр Endianness формата              : Big
Идентификатор кодека                     : A_AC3
Продолжительность                        : 1 ч. 45 м.
Вид битрейта                             : Постоянный
Битрейт                                  : 384 Кбит/сек
Каналы                                   : 6 каналов
Расположение каналов                     : Front: L C R, Side: L R, LFE
Частота                                  : 48,0 КГц
Метод сжатия                             : С потерями
Размер потока                            : 290 Мбайт (9%)
Язык                                     : Russian
Default                                  : Да
Forced                                   : Нет
Меню
00:00:00.000                             : en:Глава 1
00:06:16.000                             : en:Глава 2
00:17:16.000                             : en:Глава 3
00:24:42.000                             : en:Глава 4
00:33:49.000                             : en:Глава 5
00:42:42.000                             : en:Глава 6
00:50:41.000                             : en:Глава 7
00:57:50.000                             : en:Глава 8
01:06:38.000                             : en:Глава 9
01:15:25.000                             : en:Глава 10
01:25:16.000                             : en:Глава 11
01:31:53.000                             : en:Глава 12
01:41:28.000                             : en:Глава 13
Скриншоты:

[Цитировать]



Показать сообщения:    

Текущее время: 04-Дек 13:19

Часовой пояс: UTC + 3


Вы не можете начинать темы
Вы не можете отвечать на сообщения
Вы не можете редактировать свои сообщения
Вы не можете удалять свои сообщения
Вы не можете голосовать в опросах
Вы не можете прикреплять файлы к сообщениям
Вы не можете скачивать файлы

!ВНИМАНИЕ!
Сайт не предоставляет электронные версии произведений, а занимается лишь коллекционированием и каталогизацией ссылок, присылаемых и публикуемых на форуме нашими читателями. Если вы являетесь правообладателем какого-либо представленного материала и не желаете, чтобы ссылка на него находилась в нашем каталоге, свяжитесь с нами, и мы незамедлительно удалим ее. Файлы для обмена на трекере предоставлены пользователями сайта, и администрация не несет ответственности за их содержание. Просьба не заливать файлы, защищенные авторскими правами, а также файлы нелегального содержания!