[ Сегодня идет свободное скачивание без начисления Download ]


Статистика раздачи
Нет
 
   
 
Top  
 
 
Ускорение / Momentum (2015)Информация о фильме
Название: Ускорение
Оригинальное название: Momentum
Год выхода: 2015
Жанр: Боевик, триллер
Режиссер: Стивен С. Кампанелли
В ролях: Ольга Куриленко, Морган Фримен, Джеймс Пьюрфой, Дженна Сарас, Сабина Палфи, Карл Танинг, Ли-Энн Саммерс, Эйдан Уайток, Мэриэн Фризелл, Грег Кри
О фильме:
Алекс, опытная воровка, соглашается совершить свое последнее ограбление... Но все идет не по плану. Теперь ей - красивой, сильной и безжалостной femme fatale - угрожает опасность. И неудачное ограбление - не единственная проблема. Она перешла дорогу секретному международному синдикату, который ищет нечто более ценное, чем бриллианты. С этого момента для Алекс единственный способ спастись - бежать. И как можно быстрее.

Страна: США, ЮАР
Студия: Azari Media, Thaba Media
Продолжительность: 01:36:03
Перевод: Дублированный [iTunes]
Файл
Кодек: MPEG4 Video (H264)
Качество: BDRip 1080p | iTunes
Видео: 1920x804, 7302 Kbps, 23.976fps
Звук:
Аудио #1: AC-3, 6 ch, 448 kbps (Rus) - iTunes сборка 5.1 Wety
Аудио #2: AC-3, 2 ch, 192 kbps (Rus) - iTunes
Аудио #3: AC-3, 6 ch, 640 kbps (Eng)
Субтитры: английские

Аудио #1

Оригинальная английская дорожка разложена по каналам, диалоги заменены диалогами из русской дублированной аудиодорожки #2.

Mediainfo

x264 [info]: frame I:1258 Avg QP:15.81 size:156955
x264 [info]: frame P:38130 Avg QP:18.12 size: 60693
x264 [info]: frame B:98805 Avg QP:19.92 size: 27616
x264 [info]: consecutive B-frames: 6.6% 6.2% 13.6% 19.7% 14.9% 34.4% 2.8% 0.8% 0.9%
General
Unique ID : 193351209738604460222072841026397410803 (0x917616A57087C47385D7A21F2BB615F3)
Complete name : D:FilmMomentum.2015.BDRip.1080p.mkv
Format : Matroska
Format version : Version 2
File size : 5.74 GiB
Duration : 1h 36mn
Overall bit rate : 8 555 Kbps
Movie name : -=WALLEDOL=-
Encoded date : UTC 2015-10-30 14:10:33
Writing application : mkvmerge v4.0.0 ('The Stars were mine') сборка от Jun 6 2010 16:18:42
Writing library : libebml v1.0.0 + libmatroska v1.0.0
Video
ID : 1
Format : AVC
Format/Info : Advanced Video Codec
Format profile : High@L4.1
Format settings, CABAC : Yes
Format settings, ReFrames : 5 frames
Codec ID : V_MPEG4/ISO/AVC
Duration : 1h 36mn
Bit rate : 7 302 Kbps
Width : 1 920 pixels
Height : 804 pixels
Display aspect ratio : 2.40:1
Frame rate mode : Constant
Frame rate : 23.976 fps
Color space : YUV
Chroma subsampling : 4:2:0
Bit depth : 8 bits
Scan type : Progressive
Bits/(Pixel*Frame) : 0.197
Stream size : 4.77 GiB (83%)
Title : Momentum.2015.BDRip.1080p
Writing library : x264 core 148 r2638 7599210
Encoding settings : cabac=1 / ref=5 / deblock=1:-3:-3 / analyse=0x3:0x133 / me=umh / subme=10 / psy=1 / psy_rd=1.00:0.10 / mixed_ref=1 / me_range=32 / chroma_me=1 / trellis=2 / 8x8dct=1 / cqm=0 / deadzone=21,11 / fast_pskip=0 / chroma_qp_offset=-3 / threads=6 / lookahead_threads=1 / sliced_threads=0 / nr=0 / decimate=1 / interlaced=0 / bluray_compat=0 / constrained_intra=0 / bframes=8 / b_pyramid=2 / b_adapt=2 / b_bias=0 / direct=3 / weightb=1 / open_gop=0 / weightp=2 / keyint=240 / keyint_min=23 / scenecut=40 / intra_refresh=0 / rc=2pass / mbtree=0 / bitrate=7302 / ratetol=1.0 / qcomp=0.60 / qpmin=0 / qpmax=69 / qpstep=4 / cplxblur=20.0 / qblur=0.5 / ip_ratio=1.40 / pb_ratio=1.30 / aq=1:0.80
Language : English
Default : No
Forced : No
Audio #1
ID : 2
Format : AC-3
Format/Info : Audio Coding 3
Mode extension : CM (complete main)
Format settings, Endianness : Big
Codec ID : A_AC3
Duration : 1h 36mn
Bit rate mode : Constant
Bit rate : 448 Kbps
Channel(s) : 6 channels
Channel positions : Front: L C R, Side: L R, LFE
Sampling rate : 48.0 KHz
Bit depth : 16 bits
Compression mode : Lossy
Stream size : 308 MiB (5%)
Title : 5.1 Wety
Language : Russian
Default : Yes
Forced : Yes
Audio #2
ID : 3
Format : AC-3
Format/Info : Audio Coding 3
Mode extension : CM (complete main)
Format settings, Endianness : Big
Codec ID : A_AC3
Duration : 1h 36mn
Bit rate mode : Constant
Bit rate : 192 Kbps
Channel(s) : 2 channels
Channel positions : Front: L R
Sampling rate : 48.0 KHz
Bit depth : 16 bits
Compression mode : Lossy
Stream size : 132 MiB (2%)
Title : iTunes
Language : Russian
Default : No
Forced : No
Audio #3
ID : 4
Format : AC-3
Format/Info : Audio Coding 3
Mode extension : CM (complete main)
Format settings, Endianness : Big
Codec ID : A_AC3
Duration : 1h 36mn
Bit rate mode : Constant
Bit rate : 640 Kbps
Channel(s) : 6 channels
Channel positions : Front: L C R, Side: L R, LFE
Sampling rate : 48.0 KHz
Bit depth : 16 bits
Compression mode : Lossy
Stream size : 440 MiB (7%)
Language : English
Default : No
Forced : No
Text
ID : 5
Format : UTF-8
Codec ID : S_TEXT/UTF8
Codec ID/Info : UTF-8 Plain Text
Language : English
Default : No
Forced : No
Menu
00:00:00.000 : en:00:00:00.000
00:11:59.427 : en:00:11:59.427
00:23:04.425 : en:00:23:04.425
00:33:35.639 : en:00:33:35.639
00:43:34.695 : en:00:43:34.695
00:54:18.964 : en:00:54:18.964
01:02:51.393 : en:01:02:51.393
01:14:14.867 : en:01:14:14.867
01:28:55.705 : en:01:28:55.705

Скриншоты

[Цитировать]



Показать сообщения:    

Текущее время: 10-Дек 23:31

Часовой пояс: UTC + 3


Вы не можете начинать темы
Вы не можете отвечать на сообщения
Вы не можете редактировать свои сообщения
Вы не можете удалять свои сообщения
Вы не можете голосовать в опросах
Вы не можете прикреплять файлы к сообщениям
Вы не можете скачивать файлы

!ВНИМАНИЕ!
Сайт не предоставляет электронные версии произведений, а занимается лишь коллекционированием и каталогизацией ссылок, присылаемых и публикуемых на форуме нашими читателями. Если вы являетесь правообладателем какого-либо представленного материала и не желаете, чтобы ссылка на него находилась в нашем каталоге, свяжитесь с нами, и мы незамедлительно удалим ее. Файлы для обмена на трекере предоставлены пользователями сайта, и администрация не несет ответственности за их содержание. Просьба не заливать файлы, защищенные авторскими правами, а также файлы нелегального содержания!