[ Сегодня идет свободное скачивание без начисления Download ]


Статистика раздачи
Нет
 
   
 
Top  
 
 
Последний вагон. Весна (2015) WEB-DLRip-AV Информация о фильме
Название: Последний вагон. Весна
Год выхода: 2015
Жанр: триллер
Режиссер: Антон Калинкин
В ролях: Илья Любимов, Мария Андреева, Анна Чурина, Борис Хвошнянский, Тимофей Трибунцев, Петар Зекавица, Сергей Греков, Алексей Ингелевич, Сергей Комаров, Екатерина Маликова
О фильме:
Главный герой Виктор — молодой тренер по боксу, у которого все великолепно: хорошая работа, красивая девушка рядом, веселые друзья. Однако жизнь приготовила ему серьезные испытания — в одну секунду все меняется и он становится главным подозреваемым в трех убийствах. Но судьба дает ему шанс…

Выпущено: Россия / Медиа группа EXIT production, Red Carpet Studio, «ТАН-Фильм»
Продолжительность: 01:45:36
Озвучивание: Оригинальное [iTunes]
Файл
Формат: MKV
Качество: WEB-DLRip-AVC
Видео: MPEG-4 AVC, ~1470 kb/s, 984x412
Аудио: AC3, 384 kb/s (6 ch)--

M/I

General
Unique ID : 149926848506543470265057207286375263100 (0x70CADC56E07B9C34062E85D35E3A2B7C)
Complete name : D:Последний вагон. Весна.(2015).BBDRIP_AVC.[-=DoMiNo=-].mkv
Format : Matroska
Format version : Version 4 / Version 2
File size : 1.37 GiB
Duration : 1h 45mn
Overall bit rate : 1 859 Kbps
Movie name : Последний вагон. Весна
Writing application : XviD4PSP 7.0.177
Writing library : Lavf56.25.101
DATE : 2015
GENRE : триллер
ENCODING_INFO : MATROSKA,WEBM > MKV / H264 > X264 VBR-2P 1470kbps Custom / AC3 > COPY
SYNOPSIS : Главный герой Виктор — молодой тренер по боксу, у которого все великолепно: хорошая работа, красивая девушка рядом, веселые друзья. Однако жизнь приготовила ему серьезные испытания — в одну секунду все меняется и он становится главным подозреваемым в трех убийствах. Но судьба дает ему шанс…
ITUNEXTC : ru-movie|18+|400|
ACTORS : Илья Любимов, Мария Андреева, Анна Чурина, Борис Хвошнянский, Тимофей Трибунцев, Петар Зекавица, Сергей Греков, Алексей Ингелевич, Сергей Комаров, Екатерина Маликова, показать всех
DIRECTOR : Антон Калинкин
PRODUCER : Дмитрий Ефремов, Владимир Пономаренко, Антон Калинкин
WRITER : Юрий Эпштейн, Антон Калинкин
COUNTRY : Россия
Language : und
FILENAME : cover.png
Attachements : cover.png
Video
ID : 1
Format : AVC
Format/Info : Advanced Video Codec
Format profile : High@L4.1
Format settings, CABAC : Yes
Format settings, ReFrames : 12 frames
Codec ID : V_MPEG4/ISO/AVC
Duration : 1h 45mn
Bit rate : 1 470 Kbps
Width : 984 pixels
Height : 412 pixels
Display aspect ratio : 2.40:1
Frame rate mode : Constant
Frame rate : 24.000 fps
Color space : YUV
Chroma subsampling : 4:2:0
Bit depth : 8 bits
Scan type : Progressive
Bits/(Pixel*Frame) : 0.151
Stream size : 1.06 GiB (77%)
Writing library : x264 core 148 r2597M e86f3a1
Encoding settings : cabac=1 / ref=12 / deblock=1:-3:-3 / analyse=0x3:0x133 / me=umh / subme=11 / psy=1 / psy_rd=1.00:0.10 / mixed_ref=1 / me_range=32 / chroma_me=1 / trellis=2 / 8x8dct=1 / cqm=0 / deadzone=21,11 / fast_pskip=0 / chroma_qp_offset=-3 / threads=5 / lookahead_threads=1 / sliced_threads=0 / nr=0 / decimate=1 / interlaced=0 / bluray_compat=0 / constrained_intra=0 / bframes=11 / b_pyramid=2 / b_adapt=2 / b_bias=0 / direct=3 / weightb=1 / open_gop=0 / weightp=2 / keyint=240 / keyint_min=24 / scenecut=40 / intra_refresh=0 / rc=2pass / mbtree=0 / bitrate=1470 / ratetol=1.0 / qcomp=0.60 / qpmin=0 / qpmax=69 / qpstep=4 / cplxblur=20.0 / qblur=0.5 / ip_ratio=1.40 / pb_ratio=1.30 / aq=1:1.00
Language : Russian
Default : Yes
Forced : No
Color range : Limited
Color primaries : BT.709
Transfer characteristics : BT.709
Matrix coefficients : BT.709
Audio
ID : 2
Format : AC-3
Format/Info : Audio Coding 3
Mode extension : CM (complete main)
Format settings, Endianness : Big
Codec ID : A_AC3
Duration : 1h 45mn
Bit rate mode : Constant
Bit rate : 384 Kbps
Channel(s) : 6 channels
Channel positions : Front: L C R, Side: L R, LFE
Sampling rate : 48.0 KHz
Bit depth : 32 bits
Compression mode : Lossy
Stream size : 290 MiB (21%)
Language : Russian
Default : Yes
Forced : No
Menu
00:00:00.000 : :Глава 1
00:06:16.000 : :Глава 2
00:17:16.000 : :Глава 3
00:24:42.000 : :Глава 4
00:33:49.000 : :Глава 5
00:42:42.000 : :Глава 6
00:50:41.000 : :Глава 7
00:57:50.000 : :Глава 8
01:06:38.000 : :Глава 9
01:15:25.000 : :Глава 10
01:25:16.000 : :Глава 11
01:31:53.000 : :Глава 12
01:41:28.000 : :Глава 13
--

Скриншоты

--

[Цитировать]



Показать сообщения:    

Текущее время: 11-Дек 03:24

Часовой пояс: UTC + 3


Вы не можете начинать темы
Вы не можете отвечать на сообщения
Вы не можете редактировать свои сообщения
Вы не можете удалять свои сообщения
Вы не можете голосовать в опросах
Вы не можете прикреплять файлы к сообщениям
Вы не можете скачивать файлы

!ВНИМАНИЕ!
Сайт не предоставляет электронные версии произведений, а занимается лишь коллекционированием и каталогизацией ссылок, присылаемых и публикуемых на форуме нашими читателями. Если вы являетесь правообладателем какого-либо представленного материала и не желаете, чтобы ссылка на него находилась в нашем каталоге, свяжитесь с нами, и мы незамедлительно удалим ее. Файлы для обмена на трекере предоставлены пользователями сайта, и администрация не несет ответственности за их содержание. Просьба не заливать файлы, защищенные авторскими правами, а также файлы нелегального содержания!