[ Сегодня идет свободное скачивание без начисления Download ]


Статистика раздачи
Нет
 
   
 
Top  
 
 
Неоконченная пьеса для механического пианино (1977) DVDRip-AVC Информация о фильме
Название: Неоконченная пьеса для механического пианино
Год выхода: 1977
Жанр: Драма, экранизация
Режиссер: Никита Михалков
В ролях: Александр Калягин, Елена Соловей, Евгения Глушенко, Антонина Шуранова, Юрий Богатырёв, Олег Табаков, Николай Пастухов, Павел Кадочников, Никита Михалков, Анатолий Ромашин, Наталья Назарова, Ксения Минина, Сергей Никоненко, Сергей Гуреев, Виктор Комиссаров, Вячеслав Максаков, Марат Юсим, Геннадий Иванов
О фильме: «Неоконченная пьеса для механического пианино» - экранизация оригинальных литературных произведений Антона Павловича Чехова - так называемой «Пьесы без названия», «В усадьбе», «Учитель словесности», «Три года» и «Моя жизнь». Действие фильма происходит летом на загородной даче. Школьный учитель Платонов приезжает вместе с женой погостить несколько дней у своего друга вдали от городской суеты. Среди прочих гостей главный герой встречает прежнюю возлюбленную Софью, которая теперь замужем за другим. Платонов вдруг обнаруживает, что его чувства к Софье не угасли, чему в немалой степени благоприятствуют два обстоятельства: во-первых, Софья лишь недавно вышла замуж, во-вторых, оказывается она замужем за ничтожеством. Воспоминания побуждают героев как следует разобраться в своих чувствах, но, в конце концов, жизнь расставляет всё по своим местам и они понимают, что их давно ушедшая любовь всё-таки угасла.
Страна: СССР, Мосфильм
Продолжительность: 01:37:15
Перевод: не требуется
Файл
Кодек: x264
Качество: DVDRip-AVC
Видео: MPEG-4 AVC, 2112 Кбит/с, 714x576@761x576
Звук: AC3, 6 ch, 448 Кбит/с, AC3, 1 ch, 192 Кбит/с
Субтитры: Русские

Скриншоты

Медиа-Инфо

raw [info]: 714x576p 16:15 @ 25/1 fps (cfr)
x264 [info]: using SAR=16/15
x264 [info]: using cpu capabilities: MMX2 SSE2Fast SSSE3 SSE4.2 AVX
x264 [info]: profile High, level 4.1
x264 [info]: frame I:733 Avg QP:16.19 size: 88461
x264 [info]: frame P:38812 Avg QP:19.85 size: 26519
x264 [info]: frame B:106333 Avg QP:22.80 size: 4198
==============================================================================================================
Общее
Уникальный идентификатор : 251552622263754575746379297110619874818 (0xBD3F45D4F48CE5ADB88BE389439C6602)
Полное имя : D:Неоконченная пьеса для механического пианино_1977-DVDRip-AVC.mkv
Формат : Matroska
Версия формата : Version 2
Размер файла : 1,87 Гбайт
Продолжительность : 1 ч. 37 м.
Общий поток : 2754 Кбит/сек
Название фильма : Неоконченная пьеса для механического пианино (1977) ® RZ-7
Дата кодирования : UTC 2015-11-02 19:24:31
Программа кодирования : mkvmerge v5.8.0 ('No Sleep / Pillow') built on Sep 2 2012 15:37:04
Библиотека кодирования : libebml v1.2.3 + libmatroska v1.3.0
Видео
Идентификатор : 1
Формат : AVC
Формат/Информация : Advanced Video Codec
Профиль формата : High@L4.1
Параметр CABAC формата : Да
Параметр ReFrames формата : 14 кадров
Идентификатор кодека : V_MPEG4/ISO/AVC
Продолжительность : 1 ч. 37 м.
Битрейт : 2112 Кбит/сек
Ширина : 714 пикселей
Высота : 576 пикселей
Соотношение сторон : 4:3
Соотношение сторон в оригинале : 4:3
Режим частоты кадров : Постоянный
Частота кадров : 25,000 кадров/сек
Цветовое пространство : YUV
Субдискретизация насыщенности : 4:2:0
Битовая глубина : 8 бит
Тип развёртки : Прогрессивная
Бит/(Пиксели*Кадры) : 0.205
Размер потока : 1,40 Гбайт (75%)
Библиотека кодирования : x264 core 146 r2538 121396c
Настройки программы : cabac=1 / ref=14 / deblock=1:-2:-2 / analyse=0x3:0x133 / me=umh / subme=10 / psy=1 / psy_rd=1.05:0.13 / mixed_ref=1 / me_range=32 / chroma_me=1 / trellis=2 / 8x8dct=1 / cqm=0 / deadzone=21,11 / fast_pskip=0 / chroma_qp_offset=-3 / threads=12 / lookahead_threads=2 / sliced_threads=0 / nr=0 / decimate=0 / interlaced=0 / bluray_compat=0 / constrained_intra=0 / bframes=9 / b_pyramid=2 / b_adapt=2 / b_bias=0 / direct=3 / weightb=1 / open_gop=0 / weightp=2 / keyint=250 / keyint_min=25 / scenecut=40 / intra_refresh=0 / rc_lookahead=40 / rc=2pass / mbtree=1 / bitrate=2112 / ratetol=1.0 / qcomp=0.70 / qpmin=0 / qpmax=39 / qpstep=4 / cplxblur=20.0 / qblur=0.5 / ip_ratio=1.40 / aq=1:1.00
Язык : English
Default : Да
Forced : Нет
Цветовой диапазон : Limited
Основные цвета : BT.601 PAL
Характеристики трансфера : BT.470 System B, BT.470 System G
Коэффициенты матрицы : BT.601
Аудио #1
Идентификатор : 2
Формат : AC-3
Формат/Информация : Audio Coding 3
Расширение режима : CM (complete main)
Параметр Endianness формата : Big
Идентификатор кодека : A_AC3
Продолжительность : 1 ч. 37 м.
Вид битрейта : Постоянный
Битрейт : 448 Кбит/сек
Каналы : 6 каналов
Расположение каналов : Front: L C R, Side: L R, LFE
Частота : 48,0 КГц
Метод сжатия : С потерями
Задержка видео : 1 с. 60 мс.
Размер потока : 312 Мбайт (16%)
Язык : Russian
Default : Да
Forced : Нет
Аудио #2
Идентификатор : 3
Формат : AC-3
Формат/Информация : Audio Coding 3
Расширение режима : CM (complete main)
Параметр Endianness формата : Big
Идентификатор кодека : A_AC3
Продолжительность : 1 ч. 37 м.
Вид битрейта : Постоянный
Битрейт : 192 Кбит/сек
Каналы : 1 канал
Расположение каналов : Front: C
Частота : 48,0 КГц
Метод сжатия : С потерями
Задержка видео : 1 с. 64 мс.
Размер потока : 134 Мбайт (7%)
Язык : Russian
Default : Нет
Forced : Нет
Текст
Идентификатор : 4
Формат : UTF-8
Идентификатор кодека : S_TEXT/UTF8
Идентификатор кодека/Информация : UTF-8 Plain Text
Заголовок : SRT Русские
Язык : Russian
Default : Нет
Forced : Нет

[Цитировать]



Показать сообщения:    

Текущее время: 10-Дек 19:41

Часовой пояс: UTC + 3


Вы не можете начинать темы
Вы не можете отвечать на сообщения
Вы не можете редактировать свои сообщения
Вы не можете удалять свои сообщения
Вы не можете голосовать в опросах
Вы не можете прикреплять файлы к сообщениям
Вы не можете скачивать файлы

!ВНИМАНИЕ!
Сайт не предоставляет электронные версии произведений, а занимается лишь коллекционированием и каталогизацией ссылок, присылаемых и публикуемых на форуме нашими читателями. Если вы являетесь правообладателем какого-либо представленного материала и не желаете, чтобы ссылка на него находилась в нашем каталоге, свяжитесь с нами, и мы незамедлительно удалим ее. Файлы для обмена на трекере предоставлены пользователями сайта, и администрация не несет ответственности за их содержание. Просьба не заливать файлы, защищенные авторскими правами, а также файлы нелегального содержания!