[ Сегодня идет свободное скачивание без начисления Download ]


Статистика раздачи
Нет
 
   
 
Top  
 
 
Морские котики против зомби / Navy SEALs vs. Zombies (2015) BDRip - Производство: США, Hollywood Media Bridge, Media Circus, Throne Productions
Жанр: Ужасы, Боевик
Режиссер: Стэнтон Баррет
Актеры: Стефани Онор, Джером Эндрис, Сью-Линн Ансари, Джон Эперсон, Назима Бартек, Джеки Бекер, Сара Бенджамин, Массимо Добрович, Майкл К. Дуглас, Майкл Дудикофф
Описание:
Когда происходит вспышка смертельной инфекции, превращающей людей в яростных зомби, группа опытных бойцов из отряда «морских котиков» сражается с армией нежити в погружённом в хаос Новом Орлеане за свои жизни и жизни всех жителей города, чтобы не дать вирусу распространиться дальше.
Дата мировой премьеры: 8 октября 2015
Продолжительность: 01:36:56
Качество видео: BDRemux
Перевод: Двуголосый закадровый, любительский
Озвучка / Автор перевода: (Ох! Студия) и Ворон
Язык субтитров: Английский, испанский
Вид субтитров: Вшитые отключаемые
Видео: AVC/H.264, 1920х1080, ~11.2 Мбит/с
Аудио 1: Русский (AC3, 6 ch, 640 Кбит/с)
Аудио 2: Английский (AC3, 6 ch, 640 Кбит/с)
Семпл: Скачать

Mediainfo:

Общее
Уникальный идентификатор                 : 178598556802425060756252168408582543531 (0x865CD4B30B94AB60B418174D7AF358AB)
Полное имя                               : E:\MMMM\Navy.Seals.vs.Zombies.2015.1080p.BDRip.x264.mkv
Формат                                   : Matroska
Версия формата                           : Version 4 / Version 2
Размер файла                             : 8,45 Гбайт
Продолжительность                        : 1 ч. 37 м.
Общий поток                              : 12,4 Мбит/сек
Дата кодирования                         : UTC 2015-11-03 05:56:03
Программа кодирования                    : mkvmerge v6.9.1 ('Blue Panther') 64bit built on Apr 18 2014 18:23:38
Библиотека кодирования                   : libebml v1.3.0 + libmatroska v1.4.1
Видео
Идентификатор                            : 1
Формат                                   : AVC
Формат/Информация                        : Advanced Video Codec
Профиль формата                          : High@L4.1
Параметр CABAC формата                   : Да
Параметр ReFrames формата                : 4 кадра
Идентификатор кодека                     : V_MPEG4/ISO/AVC
Продолжительность                        : 1 ч. 37 м.
Битрейт                                  : 11,2 Мбит/сек
Ширина                                   : 1920 пикселей
Высота                                   : 1080 пикселей
Соотношение сторон                       : 16:9
Режим частоты кадров                     : Постоянный
Частота кадров                           : 23,976 кадра/сек
Цветовое пространство                    : YUV
Субдискретизация насыщенности            : 4:2:0
Битовая глубина                          : 8 бит
Тип развёртки                            : Прогрессивная
Бит/(Пиксели*Кадры)                      : 0.225
Размер потока                            : 7,41 Гбайт (88%)
Библиотека кодирования                   : x264 core 146 r2538 121396c
Настройки программы                      : cabac=1 / ref=4 / deblock=1:-1:-1 / analyse=0x3:0x113 / me=umh / subme=11 / psy=1 / psy_rd=1.00:0.20 / mixed_ref=1 / me_range=32 / chroma_me=1 / trellis=2 / 8x8dct=1 / cqm=0 / deadzone=21,11 / fast_pskip=0 / chroma_qp_offset=-3 / threads=12 / lookahead_threads=1 / sliced_threads=0 / nr=0 / decimate=0 / interlaced=0 / bluray_compat=0 / constrained_intra=0 / bframes=6 / b_pyramid=2 / b_adapt=2 / b_bias=0 / direct=3 / weightb=1 / open_gop=0 / weightp=2 / keyint=240 / keyint_min=23 / scenecut=40 / intra_refresh=0 / rc_lookahead=40 / rc=2pass / mbtree=0 / bitrate=11200 / ratetol=1.0 / qcomp=0.60 / qpmin=0 / qpmax=69 / qpstep=4 / cplxblur=20.0 / qblur=0.5 / vbv_maxrate=50000 / vbv_bufsize=62500 / nal_hrd=none / filler=0 / ip_ratio=1.40 / pb_ratio=1.30 / aq=1:1.00
Язык                                     : English
Default                                  : Да
Forced                                   : Нет
Аудио #1
Идентификатор                            : 2
Формат                                   : AC-3
Формат/Информация                        : Audio Coding 3
Расширение режима                        : CM (complete main)
Параметр Endianness формата              : Big
Идентификатор кодека                     : A_AC3
Продолжительность                        : 1 ч. 37 м.
Вид битрейта                             : Постоянный
Битрейт                                  : 640 Кбит/сек
Каналы                                   : 6 каналов
Расположение каналов                     : Front: L C R, Side: L R, LFE
Частота                                  : 48,0 КГц
Метод сжатия                             : С потерями
Размер потока                            : 448 Мбайт (5%)
Заголовок                                : voron
Язык                                     : Russian
Default                                  : Да
Forced                                   : Нет
Аудио #2
Идентификатор                            : 3
Формат                                   : AC-3
Формат/Информация                        : Audio Coding 3
Расширение режима                        : CM (complete main)
Параметр Endianness формата              : Big
Идентификатор кодека                     : A_AC3
Продолжительность                        : 1 ч. 37 м.
Вид битрейта                             : Постоянный
Битрейт                                  : 640 Кбит/сек
Каналы                                   : 6 каналов
Расположение каналов                     : Front: L C R, Side: L R, LFE
Частота                                  : 48,0 КГц
Метод сжатия                             : С потерями
Размер потока                            : 448 Мбайт (5%)
Заголовок                                : original
Язык                                     : English
Default                                  : Нет
Forced                                   : Нет
Текст #1
Идентификатор                            : 4
Формат                                   : UTF-8
Идентификатор кодека                     : S_TEXT/UTF8
Идентификатор кодека/Информация          : UTF-8 Plain Text
Язык                                     : English
Default                                  : Нет
Forced                                   : Нет
Текст #2
Идентификатор                            : 5
Формат                                   : UTF-8
Идентификатор кодека                     : S_TEXT/UTF8
Идентификатор кодека/Информация          : UTF-8 Plain Text
Язык                                     : Spanish
Default                                  : Нет
Forced                                   : Нет
Меню
00:00:00.000                             : en:Chapter 1
00:02:42.787                             : en:Chapter 2
00:10:27.126                             : en:Chapter 3
00:19:04.184                             : en:Chapter 4
00:25:52.217                             : en:Chapter 5
00:33:51.529                             : en:Chapter 6
00:42:12.029                             : en:Chapter 7
00:52:04.121                             : en:Chapter 8
01:03:04.781                             : en:Chapter 9
01:15:33.403                             : en:Chapter 10
01:22:23.897                             : en:Chapter 11
01:33:51.459                             : en:Chapter 12
01:36:55.392                             : en:Chapter 13
Скриншоты:

[Цитировать]



Показать сообщения:    

Текущее время: 10-Дек 06:00

Часовой пояс: UTC + 3


Вы не можете начинать темы
Вы не можете отвечать на сообщения
Вы не можете редактировать свои сообщения
Вы не можете удалять свои сообщения
Вы не можете голосовать в опросах
Вы не можете прикреплять файлы к сообщениям
Вы не можете скачивать файлы

!ВНИМАНИЕ!
Сайт не предоставляет электронные версии произведений, а занимается лишь коллекционированием и каталогизацией ссылок, присылаемых и публикуемых на форуме нашими читателями. Если вы являетесь правообладателем какого-либо представленного материала и не желаете, чтобы ссылка на него находилась в нашем каталоге, свяжитесь с нами, и мы незамедлительно удалим ее. Файлы для обмена на трекере предоставлены пользователями сайта, и администрация не несет ответственности за их содержание. Просьба не заливать файлы, защищенные авторскими правами, а также файлы нелегального содержания!