[ Сегодня идет свободное скачивание без начисления Download ]


Статистика раздачи
Нет
 
   
 
Top  
 
 
Золотые (Барвиха - 2) (1-15 серии из 15) (Второй сезон)
(Релиз спутникового канала "ТНТ")
Год выпуска: 2011
Жанр: Молодежная драма
Продолжительность: ~50 минут серия
Производство: "РАСФОКУС ФИЛЬМ"
Субтитры: Нет
Режиссер: Михаил Соловьев, Владислав КаптурВ ролях: Лянка Грыу, Наталья Бардо, Равшана Куркова, Марина Орлова, Анна Михайловская, Анна Хилькевич, Елена Меркулова, Андрей Дементьев, Артем Волков, Родион Галюченко, Рустам Хазиев, Семен Почивалов, Елена Морозова, Наталья Лукеичева, Родион Юрин, Эвелина Бледанс, Вячеслав Разбегаев, Олеся Поташинская, Сергей Юшкевич, Лала Олегрова, Дмитрий Фрид, Влад Топалов, Виктория Боня, Елена Федорова, Ольга Мокшина, Ольга Прохватыло, Владимир Ташлыков, Наталья Селиверстова, Дмитрий Павленко, Дмитрий Готсдинер, Лада Марис, Наталья Масич, Наталья Булыгина, Марина Гайзидорская, Александр Пашковский, Марина Нуделинская, Алиса Александрова, Елена Лямина, Стелла Ильницкая, Александр Демин, Леонид Кутсар, Ольга Дибцова, Светлана Сероглазова, Анастасия Кузнецова, Лукерия Ильященко, Юлия Воронова, Сергей Неудачин, Василий Брыков, Полина Ражникова, Людмила Гнилова, Иван Исьянов, Валерия Гладина, Максим Браматкин и др. Это новые истории о подростках элитной школы «Касталия». Они перешли в выпускной класс и теперь им дозволено многое. Они тратят деньги родителей и мечтают о светлом будущем. Они еще дети, но они уже решают не детские проблемы. Секс, любовь, дружба, зависть. Им придется отвечать за свои поступки. В новом сезоне герои сериала заканчивают школу, на носу - выпускные экзамены. Но рублевским детям и их «городским» одноклассникам не до учебы в школе. Ведь реальная жизнь ежедневно преподносит жестокие уроки. В классе появляется новенькая из «рублевских». Девушка ставит перед серьезным выбором сразу троих героев сериала. Евгений встречается сразу с двумя девушками, но в итоге находит неожиданный компромисс. Вика знакомит Башню с родителями, и эта встреча переворачивает всю жизнь городского парня. Ксения учится быть по-взрослому сексуальной для любимого, но ее старания не оценят должным образом. Антон Высоцкий влюбляется в девушку с неоднозначным прошлым, а Фендер, как всегда, случайно влипает в серьезную историю. К выпускному каждый приходит со своим багажом переживаний.Качество: DVB
Формат: MPEG
Видео кодек: MPEG2
Аудио кодек: MPEG Audio
Видео: MPEG2 Video 720x576 (4:3) 25.00fps ~4800 Kbps, 0.463 bit/pixel
Аудио: MPEG Audio 48000Hz stereo 192 Kbps (ЗВУК ТОЛЬКО НА ОДНОМ КАНАЛЕ)
Релиз спутникового канала:

Скриншоты

01_ВОСХОД

02_БЕЗ ДЕНЕГ

03_СТРИПТИЗ

04_НА ГРАНИ

05_СВЕТСКАЯ ЖИЗНЬ

06_ДЕНЬ РОЖДЕНИЯ

07_АБОНЕНТ НЕДОСТУПЕН

08_ВТРОЕМ

09_СЛАДКАЯ ЖИЗНЬ

10_ТИГРОВОЕ БОДИ

11_ТРУДНЫЙ ВЫБОР

12_БИРЮЛЕВО

13_ВЗРОСЛАЯ ЖИЗНЬ

14_ДРЕДШОК

15_ВЫПУСКНОЙ

Сюжетная линия серий

01_ВОСХОД

В школе появляется новенькая - одноклассница Евгения из Красноярска Кристина, которая сразу становится причиной нескольких скандалов. Она устраивает праздник в честь приезда, из-за которой все игнорируют вечеринку Анжелы. Анжела ссорится с Евгением и хочет ему отомстить...

02_БЕЗ ДЕНЕГ

Евгений подозревает отца в убийстве, Фендер знакомится с продюсером и готов сделать все ради славы, а Кристина, похоже, встретила свою любовь.

03_СТРИПТИЗ

Ради Бальмонта Ксения берет уроки стриптиза. Но Кирилл не оценил ее стараний. От отчаяния Ксюша танцует в настоящем стрипклубе. Бальмонт понимает, что отверг девушку напрасно...

04_НА ГРАНИ

Вика ссорится с Башней и уходит в клуб одна. Башня сильно избивает Кирилла, и теперь ему грозит исключение из школы. Вика подозревает, что ее родители - не родные. Тест ДНК показал неожиданные результаты...

05_СВЕТСКАЯ ЖИЗНЬ

06_ДЕНЬ РОЖДЕНИЯ

07_АБОНЕНТ НЕДОСТУПЕН

Женя и Кристина принимают предложение Евгения жить втроем. Бальмонт хочет стать четвертым в их отношениях и говорит об этом Кристине. У девушки есть коварный план, и она соглашается.

08_ВТРОЕМ

Фендер достает наркотики для вечеринки Антона и Бальмонта. Башня не пускает Вику и запирает ее. На вечеринке Кристине стало плохо, ее увезли в больницу. Врачи ставят Кристине шокирующий диагноз.

09_СЛАДКАЯ ЖИЗНЬ

10_ТИГРОВОЕ БОДИ

11_ТРУДНЫЙ ВЫБОР

Женя едет по делам в свою школу в Бирюлево. Пудеев отправляется за ней. Женя встречает своего бывшего парня, который вновь проявляет чувства к девушке. Пудеев уезжает. Жене не удается все ему объяснить.

12_БИРЮЛЕВО

Антон приводит в дом к родителям "сомнительную" девушку Дашу. Родители Вики не одобряют ее отношений с Башней. Евгений ухаживает за новенькой и не совсем обычной девушкой Лилей. Антон рассказывает журналистам нелицеприятные вещи про своего отца и тем самым провоцирует сердечный приступ у папы. А Даша уходит - но куда и к кому?

13_ВЗРОСЛАЯ ЖИЗНЬ

14_ДРЕДШОК

15_ВЫПУСКНОЙ

MediaInfo

01_ВОСХОД

General
Complete name : J:\ЗОЛОТЫЕ\01_ЗОЛОТЫЕ_ВОСХОД_DVB_ТНТ_by_galebcev.mpg
Format : MPEG-PS
File size : 1.78 GiB
Duration : 50mn 6s
Overall bit rate : 5 093 Kbps
Writing library : (c) 1998-2008 Womble Multimedia, Inc. / MPEG Video Wizard (08/2008) / Dec 31 2008
Video
ID : 224 (0xE0)
Format : MPEG Video
Format version : Version 2
Format profile : Main@Main
Format settings, BVOP : Yes
Format settings, Matrix : Default
Format settings, GOP : M=3, N=18
Duration : 50mn 6s
Bit rate mode : Variable
Bit rate : 4 800 Kbps
Nominal bit rate : 15.0 Mbps
Width : 720 pixels
Height : 576 pixels
Display aspect ratio : 4:3
Frame rate : 25.000 fps
Standard : PAL
Color space : YUV
Chroma subsampling : 4:2:0
Bit depth : 8 bits
Scan type : Interlaced
Scan order : Top Field First
Compression mode : Lossy
Bits/(Pixel*Frame) : 0.463
Stream size : 1.68 GiB (94%)
Writing library : (c) 1998-2008 Womble Multimedia, Inc. / MPEG Video Wizard (08/2008) / Dec 31 2008
Audio
ID : 192 (0xC0)
Format : MPEG Audio
Format version : Version 1
Format profile : Layer 2
Duration : 50mn 6s
Bit rate mode : Constant
Bit rate : 192 Kbps
Channel(s) : 2 channels
Sampling rate : 48.0 KHz
Compression mode : Lossy
Video delay : -80ms
Stream size : 68.8 MiB (4%)

02_БЕЗ ДЕНЕГ

General
Complete name : J:\ЗОЛОТЫЕ\02_ЗОЛОТЫЕ_БЕЗ ДЕНЕГ_DVB_ТНТ_by_galebcev.mpg
Format : MPEG-PS
File size : 1.76 GiB
Duration : 49mn 25s
Overall bit rate : 5 094 Kbps
Writing library : (c) 1998-2008 Womble Multimedia, Inc. / MPEG Video Wizard (08/2008) / Dec 31 2008
Video
ID : 224 (0xE0)
Format : MPEG Video
Format version : Version 2
Format profile : Main@Main
Format settings, BVOP : Yes
Format settings, Matrix : Default
Format settings, GOP : M=3, N=9
Duration : 49mn 25s
Bit rate mode : Variable
Bit rate : 4 801 Kbps
Nominal bit rate : 15.0 Mbps
Width : 720 pixels
Height : 576 pixels
Display aspect ratio : 4:3
Frame rate : 25.000 fps
Standard : PAL
Color space : YUV
Chroma subsampling : 4:2:0
Bit depth : 8 bits
Scan type : Progressive
Scan order : Top Field First
Compression mode : Lossy
Bits/(Pixel*Frame) : 0.463
Stream size : 1.66 GiB (94%)
Writing library : (c) 1998-2008 Womble Multimedia, Inc. / MPEG Video Wizard (08/2008) / Dec 31 2008
Audio
ID : 192 (0xC0)
Format : MPEG Audio
Format version : Version 1
Format profile : Layer 2
Duration : 49mn 25s
Bit rate mode : Constant
Bit rate : 192 Kbps
Channel(s) : 2 channels
Sampling rate : 48.0 KHz
Compression mode : Lossy
Video delay : -40ms
Stream size : 67.9 MiB (4%)

03_СТРИПТИЗ

General
Complete name : J:\ЗОЛОТЫЕ\03_ЗОЛОТЫЕ_СТРИПТИЗ_DVB_ТНТ_by_galebcev.mpg
Format : MPEG-PS
File size : 1.45 GiB
Duration : 40mn 42s
Overall bit rate : 5 094 Kbps
Writing library : (c) 1998-2008 Womble Multimedia, Inc. / MPEG Video Wizard (08/2008) / Dec 31 2008
Video
ID : 224 (0xE0)
Format : MPEG Video
Format version : Version 2
Format profile : Main@Main
Format settings, BVOP : Yes
Format settings, Matrix : Default
Format settings, GOP : M=1, N=23
Duration : 40mn 42s
Bit rate mode : Variable
Bit rate : 4 800 Kbps
Nominal bit rate : 15.0 Mbps
Width : 720 pixels
Height : 576 pixels
Display aspect ratio : 4:3
Frame rate : 25.000 fps
Standard : PAL
Color space : YUV
Chroma subsampling : 4:2:0
Bit depth : 8 bits
Scan type : Progressive
Scan order : Top Field First
Compression mode : Lossy
Bits/(Pixel*Frame) : 0.463
Stream size : 1.36 GiB (94%)
Writing library : (c) 1998-2008 Womble Multimedia, Inc. / MPEG Video Wizard (08/2008) / Dec 31 2008
Audio
ID : 192 (0xC0)
Format : MPEG Audio
Format version : Version 1
Format profile : Layer 2
Duration : 40mn 42s
Bit rate mode : Constant
Bit rate : 192 Kbps
Channel(s) : 2 channels
Sampling rate : 48.0 KHz
Compression mode : Lossy
Stream size : 55.9 MiB (4%)

04_НА ГРАНИ

General
Complete name : J:\ЗОЛОТЫЕ\04_ЗОЛОТЫЕ_НА ГРАНИ_DVB_ТНТ_by_galebcev.mpg
Format : MPEG-PS
File size : 1.48 GiB
Duration : 41mn 29s
Overall bit rate : 5 093 Kbps
Writing library : (c) 1998-2008 Womble Multimedia, Inc. / MPEG Video Wizard (08/2008) / Dec 31 2008
Video
ID : 224 (0xE0)
Format : MPEG Video
Format version : Version 2
Format profile : Main@Main
Format settings, BVOP : No
Format settings, Matrix : Default
Format settings, GOP : M=1, N=27
Duration : 41mn 29s
Bit rate mode : Variable
Bit rate : 4 800 Kbps
Nominal bit rate : 15.0 Mbps
Width : 720 pixels
Height : 576 pixels
Display aspect ratio : 4:3
Frame rate : 25.000 fps
Standard : PAL
Color space : YUV
Chroma subsampling : 4:2:0
Bit depth : 8 bits
Scan type : Interlaced
Scan order : Top Field First
Compression mode : Lossy
Bits/(Pixel*Frame) : 0.463
Stream size : 1.39 GiB (94%)
Writing library : (c) 1998-2008 Womble Multimedia, Inc. / MPEG Video Wizard (08/2008) / Dec 31 2008
Audio
ID : 192 (0xC0)
Format : MPEG Audio
Format version : Version 1
Format profile : Layer 2
Duration : 41mn 29s
Bit rate mode : Constant
Bit rate : 192 Kbps
Channel(s) : 2 channels
Sampling rate : 48.0 KHz
Compression mode : Lossy
Stream size : 57.0 MiB (4%)

05_СВЕТСКАЯ ЖИЗНЬ

General
Complete name : J:\ЗОЛОТЫЕ\05_ЗОЛОТЫЕ_СВЕТСКАЯ ЖИЗНЬ_DVB_ТНТ_by_galebcev.mpg
Format : MPEG-PS
File size : 1.83 GiB
Duration : 51mn 32s
Overall bit rate : 5 094 Kbps
Writing library : (c) 1998-2008 Womble Multimedia, Inc. / MPEG Video Wizard (08/2008) / Dec 31 2008
Video
ID : 224 (0xE0)
Format : MPEG Video
Format version : Version 2
Format profile : Main@Main
Format settings, BVOP : No
Format settings, Matrix : Default
Format settings, GOP : M=1, N=11
Duration : 51mn 32s
Bit rate mode : Variable
Bit rate : 4 800 Kbps
Nominal bit rate : 15.0 Mbps
Width : 720 pixels
Height : 576 pixels
Display aspect ratio : 4:3
Frame rate : 25.000 fps
Standard : PAL
Color space : YUV
Chroma subsampling : 4:2:0
Bit depth : 8 bits
Scan type : Progressive
Scan order : Top Field First
Compression mode : Lossy
Bits/(Pixel*Frame) : 0.463
Stream size : 1.73 GiB (94%)
Writing library : (c) 1998-2008 Womble Multimedia, Inc. / MPEG Video Wizard (08/2008) / Dec 31 2008
Audio
ID : 192 (0xC0)
Format : MPEG Audio
Format version : Version 1
Format profile : Layer 2
Duration : 51mn 32s
Bit rate mode : Constant
Bit rate : 192 Kbps
Channel(s) : 2 channels
Sampling rate : 48.0 KHz
Compression mode : Lossy
Stream size : 70.8 MiB (4%)

06_ДЕНЬ РОЖДЕНИЯ

General
Complete name : J:\ЗОЛОТЫЕ\06_ЗОЛОТЫЕ_ДЕНЬ РОЖДЕНИЯ_DVB_ТНТ_by_galebcev.mpg
Format : MPEG-PS
File size : 1.56 GiB
Duration : 43mn 52s
Overall bit rate : 5 094 Kbps
Writing library : (c) 1998-2008 Womble Multimedia, Inc. / MPEG Video Wizard (08/2008) / Dec 31 2008
Video
ID : 224 (0xE0)
Format : MPEG Video
Format version : Version 2
Format profile : Main@Main
Format settings, BVOP : Yes
Format settings, Matrix : Default
Format settings, GOP : M=3, N=18
Duration : 43mn 52s
Bit rate mode : Variable
Bit rate : 4 800 Kbps
Nominal bit rate : 15.0 Mbps
Width : 720 pixels
Height : 576 pixels
Display aspect ratio : 4:3
Frame rate : 25.000 fps
Standard : PAL
Color space : YUV
Chroma subsampling : 4:2:0
Bit depth : 8 bits
Scan type : Interlaced
Scan order : Top Field First
Compression mode : Lossy
Bits/(Pixel*Frame) : 0.463
Stream size : 1.47 GiB (94%)
Writing library : (c) 1998-2008 Womble Multimedia, Inc. / MPEG Video Wizard (08/2008) / Dec 31 2008
Audio
ID : 192 (0xC0)
Format : MPEG Audio
Format version : Version 1
Format profile : Layer 2
Duration : 43mn 52s
Bit rate mode : Constant
Bit rate : 192 Kbps
Channel(s) : 2 channels
Sampling rate : 48.0 KHz
Compression mode : Lossy
Video delay : -80ms
Stream size : 60.3 MiB (4%)

07_АБОНЕНТ НЕДОСТУПЕН

General
Complete name : J:\ЗОЛОТЫЕ\07_ЗОЛОТЫЕ_АБОНЕНТ НЕДОСТУПЕН_DVB_ТНТ_by_galebcev.mpg
Format : MPEG-PS
File size : 1.58 GiB
Duration : 44mn 26s
Overall bit rate : 5 094 Kbps
Writing library : (c) 1998-2008 Womble Multimedia, Inc. / MPEG Video Wizard (08/2008) / Dec 31 2008
Video
ID : 224 (0xE0)
Format : MPEG Video
Format version : Version 2
Format profile : Main@Main
Format settings, BVOP : Yes
Format settings, Matrix : Default
Format settings, GOP : M=3, N=18
Duration : 44mn 25s
Bit rate mode : Variable
Bit rate : 4 800 Kbps
Nominal bit rate : 15.0 Mbps
Width : 720 pixels
Height : 576 pixels
Display aspect ratio : 4:3
Frame rate : 25.000 fps
Standard : PAL
Color space : YUV
Chroma subsampling : 4:2:0
Bit depth : 8 bits
Scan type : Progressive
Scan order : Top Field First
Compression mode : Lossy
Bits/(Pixel*Frame) : 0.463
Stream size : 1.49 GiB (94%)
Writing library : (c) 1998-2008 Womble Multimedia, Inc. / MPEG Video Wizard (08/2008) / Dec 31 2008
Audio
ID : 192 (0xC0)
Format : MPEG Audio
Format version : Version 1
Format profile : Layer 2
Duration : 44mn 26s
Bit rate mode : Constant
Bit rate : 192 Kbps
Channel(s) : 2 channels
Sampling rate : 48.0 KHz
Compression mode : Lossy
Video delay : -80ms
Stream size : 61.0 MiB (4%)

08_ВТРОЕМ

General
Complete name : J:\ЗОЛОТЫЕ\08_ЗОЛОТЫЕ_ВТРОЕМ_DVB_ТНТ_by_galebcev.mpg
Format : MPEG-PS
File size : 1.48 GiB
Duration : 41mn 35s
Overall bit rate : 5 093 Kbps
Writing library : (c) 1998-2008 Womble Multimedia, Inc. / MPEG Video Wizard (08/2008) / Dec 31 2008
Video
ID : 224 (0xE0)
Format : MPEG Video
Format version : Version 2
Format profile : Main@Main
Format settings, BVOP : No
Format settings, Matrix : Default
Format settings, GOP : M=1, N=20
Duration : 41mn 35s
Bit rate mode : Variable
Bit rate : 4 800 Kbps
Nominal bit rate : 15.0 Mbps
Width : 720 pixels
Height : 576 pixels
Display aspect ratio : 4:3
Frame rate : 25.000 fps
Standard : PAL
Color space : YUV
Chroma subsampling : 4:2:0
Bit depth : 8 bits
Scan type : Interlaced
Scan order : Top Field First
Compression mode : Lossy
Bits/(Pixel*Frame) : 0.463
Stream size : 1.39 GiB (94%)
Writing library : (c) 1998-2008 Womble Multimedia, Inc. / MPEG Video Wizard (08/2008) / Dec 31 2008
Audio
ID : 192 (0xC0)
Format : MPEG Audio
Format version : Version 1
Format profile : Layer 2
Duration : 41mn 35s
Bit rate mode : Constant
Bit rate : 192 Kbps
Channel(s) : 2 channels
Sampling rate : 48.0 KHz
Compression mode : Lossy
Stream size : 57.1 MiB (4%)

09_СЛАДКАЯ ЖИЗНЬ

General
Complete name : J:\ЗОЛОТЫЕ\09_ЗОЛОТЫЕ_СЛАДКАЯ ЖИЗНЬ_DVB_ТНТ_by_galebcev.mpg
Format : MPEG-PS
File size : 1.66 GiB
Duration : 46mn 33s
Overall bit rate : 5 093 Kbps
Writing library : (c) 1998-2008 Womble Multimedia, Inc. / MPEG Video Wizard (08/2008) / Dec 31 2008
Video
ID : 224 (0xE0)
Format : MPEG Video
Format version : Version 2
Format profile : Main@Main
Format settings, BVOP : Yes
Format settings, Matrix : Default
Format settings, GOP : M=1, N=22
Duration : 46mn 33s
Bit rate mode : Variable
Bit rate : 4 800 Kbps
Nominal bit rate : 15.0 Mbps
Width : 720 pixels
Height : 576 pixels
Display aspect ratio : 4:3
Frame rate : 25.000 fps
Standard : PAL
Color space : YUV
Chroma subsampling : 4:2:0
Bit depth : 8 bits
Scan type : Progressive
Scan order : Top Field First
Compression mode : Lossy
Bits/(Pixel*Frame) : 0.463
Stream size : 1.56 GiB (94%)
Writing library : (c) 1998-2008 Womble Multimedia, Inc. / MPEG Video Wizard (08/2008) / Dec 31 2008
Audio
ID : 192 (0xC0)
Format : MPEG Audio
Format version : Version 1
Format profile : Layer 2
Duration : 46mn 33s
Bit rate mode : Constant
Bit rate : 192 Kbps
Channel(s) : 2 channels
Sampling rate : 48.0 KHz
Compression mode : Lossy
Stream size : 63.9 MiB (4%)

10_ТИГРОВОЕ БОДИ

General
Complete name : J:\ЗОЛОТЫЕ\10_ЗОЛОТЫЕ_ТИГРОВОЕ БОДИ_DVB_ТНТ_by_galebcev.mpg
Format : MPEG-PS
File size : 1.55 GiB
Duration : 43mn 39s
Overall bit rate : 5 094 Kbps
Writing library : (c) 1998-2008 Womble Multimedia, Inc. / MPEG Video Wizard (08/2008) / Dec 31 2008
Video
ID : 224 (0xE0)
Format : MPEG Video
Format version : Version 2
Format profile : Main@Main
Format settings, BVOP : Yes
Format settings, Matrix : Default
Format settings, GOP : M=1, N=23
Duration : 43mn 39s
Bit rate mode : Variable
Bit rate : 4 800 Kbps
Nominal bit rate : 15.0 Mbps
Width : 720 pixels
Height : 576 pixels
Display aspect ratio : 4:3
Frame rate : 25.000 fps
Standard : PAL
Color space : YUV
Chroma subsampling : 4:2:0
Bit depth : 8 bits
Scan type : Interlaced
Scan order : Top Field First
Compression mode : Lossy
Bits/(Pixel*Frame) : 0.463
Stream size : 1.46 GiB (94%)
Writing library : (c) 1998-2008 Womble Multimedia, Inc. / MPEG Video Wizard (08/2008) / Dec 31 2008
Audio
ID : 192 (0xC0)
Format : MPEG Audio
Format version : Version 1
Format profile : Layer 2
Duration : 43mn 39s
Bit rate mode : Constant
Bit rate : 192 Kbps
Channel(s) : 2 channels
Sampling rate : 48.0 KHz
Compression mode : Lossy
Stream size : 59.9 MiB (4%)

11_ТРУДНЫЙ ВЫБОР

General
Complete name : J:\ЗОЛОТЫЕ\11_ЗОЛОТЫЕ_ТРУДНЫЙ ВЫБОР_DVB_ТНТ_by_galebcev.mpg
Format : MPEG-PS
File size : 1.67 GiB
Duration : 46mn 57s
Overall bit rate : 5 094 Kbps
Writing library : (c) 1998-2008 Womble Multimedia, Inc. / MPEG Video Wizard (08/2008) / Dec 31 2008
Video
ID : 224 (0xE0)
Format : MPEG Video
Format version : Version 2
Format profile : Main@Main
Format settings, BVOP : Yes
Format settings, Matrix : Default
Format settings, GOP : M=3, N=18
Duration : 46mn 57s
Bit rate mode : Variable
Bit rate : 4 800 Kbps
Nominal bit rate : 15.0 Mbps
Width : 720 pixels
Height : 576 pixels
Display aspect ratio : 4:3
Frame rate : 25.000 fps
Standard : PAL
Color space : YUV
Chroma subsampling : 4:2:0
Bit depth : 8 bits
Scan type : Progressive
Scan order : Top Field First
Compression mode : Lossy
Bits/(Pixel*Frame) : 0.463
Stream size : 1.57 GiB (94%)
Writing library : (c) 1998-2008 Womble Multimedia, Inc. / MPEG Video Wizard (08/2008) / Dec 31 2008
Audio
ID : 192 (0xC0)
Format : MPEG Audio
Format version : Version 1
Format profile : Layer 2
Duration : 46mn 57s
Bit rate mode : Constant
Bit rate : 192 Kbps
Channel(s) : 2 channels
Sampling rate : 48.0 KHz
Compression mode : Lossy
Video delay : -40ms
Stream size : 64.5 MiB (4%)

12_БИРЮЛЕВО

General
Complete name : J:\ЗОЛОТЫЕ\12_ЗОЛОТЫЕ_БИРЮЛЕВО_DVB_ТНТ_by_galebcev.mpg
Format : MPEG-PS
File size : 1.64 GiB
Duration : 46mn 10s
Overall bit rate : 5 094 Kbps
Writing library : (c) 1998-2008 Womble Multimedia, Inc. / MPEG Video Wizard (08/2008) / Dec 31 2008
Video
ID : 224 (0xE0)
Format : MPEG Video
Format version : Version 2
Format profile : Main@Main
Format settings, BVOP : Yes
Format settings, Matrix : Default
Format settings, GOP : M=3, N=21
Duration : 46mn 10s
Bit rate mode : Variable
Bit rate : 4 801 Kbps
Nominal bit rate : 15.0 Mbps
Width : 720 pixels
Height : 576 pixels
Display aspect ratio : 4:3
Frame rate : 25.000 fps
Standard : PAL
Color space : YUV
Chroma subsampling : 4:2:0
Bit depth : 8 bits
Scan type : Progressive
Scan order : Top Field First
Compression mode : Lossy
Bits/(Pixel*Frame) : 0.463
Stream size : 1.55 GiB (94%)
Writing library : (c) 1998-2008 Womble Multimedia, Inc. / MPEG Video Wizard (08/2008) / Dec 31 2008
Audio
ID : 192 (0xC0)
Format : MPEG Audio
Format version : Version 1
Format profile : Layer 2
Duration : 46mn 10s
Bit rate mode : Constant
Bit rate : 192 Kbps
Channel(s) : 2 channels
Sampling rate : 48.0 KHz
Compression mode : Lossy
Video delay : -40ms
Stream size : 63.4 MiB (4%)

13_ВЗРОСЛАЯ ЖИЗНЬ

General
Complete name : J:\ЗОЛОТЫЕ\13_ЗОЛОТЫЕ_ВЗРОСЛАЯ ЖИЗНЬ_DVB_ТНТ_by_galebcev.mpg
Format : MPEG-PS
File size : 1.69 GiB
Duration : 47mn 30s
Overall bit rate : 5 094 Kbps
Writing library : (c) 1998-2008 Womble Multimedia, Inc. / MPEG Video Wizard (08/2008) / Dec 31 2008
Video
ID : 224 (0xE0)
Format : MPEG Video
Format version : Version 2
Format profile : Main@Main
Format settings, BVOP : Yes
Format settings, Matrix : Default
Format settings, GOP : M=3, N=18
Duration : 47mn 30s
Bit rate mode : Variable
Bit rate : 4 801 Kbps
Nominal bit rate : 15.0 Mbps
Width : 720 pixels
Height : 576 pixels
Display aspect ratio : 4:3
Frame rate : 25.000 fps
Standard : PAL
Color space : YUV
Chroma subsampling : 4:2:0
Bit depth : 8 bits
Scan type : Progressive
Scan order : Top Field First
Compression mode : Lossy
Bits/(Pixel*Frame) : 0.463
Stream size : 1.59 GiB (94%)
Writing library : (c) 1998-2008 Womble Multimedia, Inc. / MPEG Video Wizard (08/2008) / Dec 31 2008
Audio
ID : 192 (0xC0)
Format : MPEG Audio
Format version : Version 1
Format profile : Layer 2
Duration : 47mn 30s
Bit rate mode : Constant
Bit rate : 192 Kbps
Channel(s) : 2 channels
Sampling rate : 48.0 KHz
Compression mode : Lossy
Video delay : -80ms
Stream size : 65.3 MiB (4%)

14_ДРЕДШОК

15_ВЫПУСКНОЙ

[Цитировать]



Показать сообщения:    

Текущее время: 07-Дек 23:21

Часовой пояс: UTC + 3


Вы не можете начинать темы
Вы не можете отвечать на сообщения
Вы не можете редактировать свои сообщения
Вы не можете удалять свои сообщения
Вы не можете голосовать в опросах
Вы не можете прикреплять файлы к сообщениям
Вы не можете скачивать файлы

!ВНИМАНИЕ!
Сайт не предоставляет электронные версии произведений, а занимается лишь коллекционированием и каталогизацией ссылок, присылаемых и публикуемых на форуме нашими читателями. Если вы являетесь правообладателем какого-либо представленного материала и не желаете, чтобы ссылка на него находилась в нашем каталоге, свяжитесь с нами, и мы незамедлительно удалим ее. Файлы для обмена на трекере предоставлены пользователями сайта, и администрация не несет ответственности за их содержание. Просьба не заливать файлы, защищенные авторскими правами, а также файлы нелегального содержания!