[ Сегодня идет свободное скачивание без начисления Download ]


Статистика раздачи
Нет
 
   
 
Top  
 
 
Добить (Перезагрузка) / Re-Kill (2015) WEB-DL - Производство: США, After Dark Films, Midsummer Films, Signature Pictures
Жанр: Фантастика, боевик, зомби
Режиссер: Валерий Милев
Актеры: Роджер Р. Кросс, Скотт Эдкинс, Даниэлла Алонсо, Брюс Пэйн, Ё Сантависак, Лэйки Андерсон, Роки Маршалл, Марк Адамс, Джиллиан Басерсон, Роб Болтин
Описание:
Страшная эпидемия, приводящая к мутации человека в зомби, поразила человечество и поставила его на грань выживания. Спустя пять лет люди справились с этой угрозой. Спецподразделение «R» занимается поиском и уничтожением оставшихся мутантов. Однако, в одной из поисковых операций бойцы наталкиваются на доселе неизвестный вид, который приспособился к борьбе с человеком и научился побеждать…
Дата мировой премьеры: 16 октября 2015
Продолжительность: 01:27:42
Качество видео: WEB-DL
Перевод: Двуголосый закадровый, любительский
Озвучка / Автор перевода: (Ох! Студия) и Ворон
Видео: AVC/H.264, 1280x718, ~3874 Кбит/с
Аудио 1: Русский (АС3, 2 ch, 192 Кбит/с)
Аудио 2: Английский (AС3, 6 ch, 384 Кбит/с)
Семпл: Скачать

Mediainfo:

Общее
Уникальный идентификатор                 : 223673236789523420696926832092227356992 (0xA845E600C28C636DBAC1B34CE104C940)
Полное имя                               : E:\MMMM\Re-Kill.2015.720p.WEB-DL.X264.mkv
Формат                                   : Matroska
Версия формата                           : Version 4 / Version 2
Размер файла                             : 2,82 Гбайт
Продолжительность                        : 1 ч. 27 м.
Общий поток                              : 4604 Кбит/сек
Дата кодирования                         : UTC 2015-11-04 09:40:37
Программа кодирования                    : mkvmerge v6.9.1 ('Blue Panther') 64bit built on Apr 18 2014 18:23:38
Библиотека кодирования                   : libebml v1.3.0 + libmatroska v1.4.1
Видео
Идентификатор                            : 1
Формат                                   : AVC
Формат/Информация                        : Advanced Video Codec
Профиль формата                          : [email protected]
Параметр CABAC формата                   : Нет
Параметр ReFrames формата                : 2 кадра
Идентификатор кодека                     : V_MPEG4/ISO/AVC
Продолжительность                        : 1 ч. 27 м.
Битрейт                                  : 3936 Кбит/сек
Ширина                                   : 1280 пикселей
Высота                                   : 718 пикселей
Соотношение сторон                       : 16:9
Режим частоты кадров                     : Постоянный
Частота кадров                           : 23,976 кадра/сек
Цветовое пространство                    : YUV
Субдискретизация насыщенности            : 4:2:0
Битовая глубина                          : 8 бит
Тип развёртки                            : Прогрессивная
Бит/(Пиксели*Кадры)                      : 0.179
Размер потока                            : 2,41 Гбайт (85%)
Язык                                     : English
Default                                  : Да
Forced                                   : Нет
Цветовой диапазон                        : Limited
Основные цвета                           : BT.709
Характеристики трансфера                 : BT.709
Коэффициенты матрицы                     : BT.709
Аудио #1
Идентификатор                            : 2
Формат                                   : AC-3
Формат/Информация                        : Audio Coding 3
Расширение режима                        : CM (complete main)
Параметр Endianness формата              : Big
Идентификатор кодека                     : A_AC3
Продолжительность                        : 1 ч. 27 м.
Вид битрейта                             : Постоянный
Битрейт                                  : 192 Кбит/сек
Каналы                                   : 2 канала
Расположение каналов                     : Front: L R
Частота                                  : 48,0 КГц
Метод сжатия                             : С потерями
Размер потока                            : 120 Мбайт (4%)
Заголовок                                : voron
Язык                                     : Russian
Default                                  : Да
Forced                                   : Нет
Аудио #2
Идентификатор                            : 3
Формат                                   : AC-3
Формат/Информация                        : Audio Coding 3
Расширение режима                        : CM (complete main)
Параметр Endianness формата              : Big
Идентификатор кодека                     : A_AC3
Продолжительность                        : 1 ч. 27 м.
Вид битрейта                             : Постоянный
Битрейт                                  : 384 Кбит/сек
Каналы                                   : 6 каналов
Расположение каналов                     : Front: L C R, Side: L R, LFE
Частота                                  : 48,0 КГц
Метод сжатия                             : С потерями
Размер потока                            : 241 Мбайт (8%)
Заголовок                                : original
Язык                                     : English
Default                                  : Нет
Forced                                   : Нет
Меню
00:00:00.000                             : en:Chapter_01
00:10:26.000                             : en:Chapter_02
00:21:21.000                             : en:Chapter_03
00:30:37.000                             : en:Chapter_04
00:40:23.000                             : en:Chapter_05
00:50:41.000                             : en:Chapter_06
01:01:47.000                             : en:Chapter_07
01:10:49.000                             : en:Chapter_08
01:22:00.000                             : en:Chapter_09
Скриншоты:

Дополнительные скриншоты:

[Цитировать]



Показать сообщения:    

Текущее время: 05-Дек 01:30

Часовой пояс: UTC + 3


Вы не можете начинать темы
Вы не можете отвечать на сообщения
Вы не можете редактировать свои сообщения
Вы не можете удалять свои сообщения
Вы не можете голосовать в опросах
Вы не можете прикреплять файлы к сообщениям
Вы не можете скачивать файлы

!ВНИМАНИЕ!
Сайт не предоставляет электронные версии произведений, а занимается лишь коллекционированием и каталогизацией ссылок, присылаемых и публикуемых на форуме нашими читателями. Если вы являетесь правообладателем какого-либо представленного материала и не желаете, чтобы ссылка на него находилась в нашем каталоге, свяжитесь с нами, и мы незамедлительно удалим ее. Файлы для обмена на трекере предоставлены пользователями сайта, и администрация не несет ответственности за их содержание. Просьба не заливать файлы, защищенные авторскими правами, а также файлы нелегального содержания!