[ Сегодня идет свободное скачивание без начисления Download ]


Статистика раздачи
Нет
 
   
 
Top  
 
 
Я вернусь в прошлое и изменю жизнь / Torno indietro e cambio vita (2015) HDRip - Производство: Италия
Жанр: Комедия
Режиссер: Карло Ванцина
Продюсер: Марко Кименц, Джованни Стабилини, Риккардо Тоцци
Актеры: Рауль Бова, Рикки Мемфис, Массимилиано Тортора, Паола Миначчони, Джулия Микелини, Августо Форнари, Витторио Эмануеле Пропицио, Микела Андреоцци, Иван Бакчи, Элис Беллагамба
Описание:
Марко и Клаудио дружат со школы, сейчас им обоим уже за 40. Марко бросила жена, а Клаудио никак не может жениться, потому что живет с престарелой матерью-алкоголичкой, отпугивающей всех его подружек. Неожиданно в результате автокатастрофы они перемещаются во времени на 25 лет назад и получают возможность изменить свою жизнь. Марко решает предотвратить свой брак, а Клаудио — вылечить от алкоголизма свою мамашу….
Дата мировой премьеры: 18 июня 2015
Продолжительность: 01:27:18
Качество видео: HDRip
Перевод: Одноголосый закадровый, любительский
Озвучка / Автор перевода: Lord32x Studio / Михаил Васильев
Вид субтитров: Отсутствуют
Видео: Xvid, 720x304, ~2006 Кбит/сек
Аудио: AC3, 6 ch, 384 Кбит/сек, CBR
Семпл: Скачать

Mediainfo:

Общее
Полное имя                               : D:\FILMЬl\JR\Ya.Vernusgh.V.Proshloe.avi
Формат                                   : AVI
Формат/Информация                        : Audio Video Interleave
Размер файла                             : 1,46 Гбайт
Продолжительность                        : 1 ч. 27 м.
Общий поток                              : 2400 Кбит/сек
Программа кодирования                    : VirtualDubMod 1.5.10.3 | www.virtualdub-fr.org || (build 2550/release)
Библиотека кодирования                   : VirtualDubMod build 2550/release
Видео
Идентификатор                            : 0
Формат                                   : MPEG-4 Visual
Профиль формата                          : Advanced Simple@L5
Параметр BVOP формата                    : 1
Параметр QPel формата                    : Нет
Параметр GMC формата                     : Без точки перехода
Параметр матрицы формата                 : Default (H.263)
Идентификатор кодека                     : XVID
Идентификатор кодека/Подсказка           : XviD
Продолжительность                        : 1 ч. 27 м.
Битрейт                                  : 2006 Кбит/сек
Ширина                                   : 720 пикселей
Высота                                   : 304 пикселя
Соотношение сторон                       : 2,35:1
Частота кадров                           : 24,000 кадра/сек
Цветовое пространство                    : YUV
Субдискретизация насыщенности            : 4:2:0
Битовая глубина                          : 8 бит
Тип развёртки                            : Прогрессивная
Метод сжатия                             : С потерями
Бит/(Пиксели*Кадры)                      : 0.382
Размер потока                            : 1,22 Гбайт (84%)
Библиотека кодирования                   : XviD 1.2.1 (UTC 2008-12-04)
Аудио
Идентификатор                            : 1
Формат                                   : AC-3
Формат/Информация                        : Audio Coding 3
Расширение режима                        : CM (complete main)
Параметр Endianness формата              : Big
Идентификатор кодека                     : 2000
Продолжительность                        : 1 ч. 27 м.
Вид битрейта                             : Постоянный
Битрейт                                  : 384 Кбит/сек
Каналы                                   : 6 каналов
Расположение каналов                     : Front: L C R, Side: L R, LFE
Частота                                  : 48,0 КГц
Метод сжатия                             : С потерями
Размер потока                            : 240 Мбайт (16%)
Выравнивание                             : Разделение по промежуткам
Продолжительность промежутка             : 42  мс. (1,00 видеокадр)
Время предзагрузки промежутка            : 500  мс.
Скриншоты:

[Цитировать]



Показать сообщения:    

Текущее время: 10-Дек 08:04

Часовой пояс: UTC + 3


Вы не можете начинать темы
Вы не можете отвечать на сообщения
Вы не можете редактировать свои сообщения
Вы не можете удалять свои сообщения
Вы не можете голосовать в опросах
Вы не можете прикреплять файлы к сообщениям
Вы не можете скачивать файлы

!ВНИМАНИЕ!
Сайт не предоставляет электронные версии произведений, а занимается лишь коллекционированием и каталогизацией ссылок, присылаемых и публикуемых на форуме нашими читателями. Если вы являетесь правообладателем какого-либо представленного материала и не желаете, чтобы ссылка на него находилась в нашем каталоге, свяжитесь с нами, и мы незамедлительно удалим ее. Файлы для обмена на трекере предоставлены пользователями сайта, и администрация не несет ответственности за их содержание. Просьба не заливать файлы, защищенные авторскими правами, а также файлы нелегального содержания!