[ Сегодня идет свободное скачивание без начисления Download ]


Статистика раздачи
Нет
 
   
 
Top  
 
 
Год выпуска: 2002
Производство: "Аватар Фильм"
Жанр: Гангстерская сага
Продолжительность: ~ 00:50:00 (750 Минут весь сериал)
Режиссёр: Алексей Сидоров
В ролях: Сергей Безруков, Владимир Вдовиченков, Дмитрий Дюжев, Павел Майков, Андрей Панин, Екатерина Гусева, Леонид Куравлев, Николай Еременко мл., Александр Белявский, Валентина Теличкина, Алексей Кравченко, Дарья Повереннова, Ян Цапник, Светлана Чуйкина, Алексей Алексеев, Мария Аронова.
Описание: Это история четырех друзей детства, обычных московских парней, Саши Белого, Космоса, Пчелы и Фила, выросших в одном дворе. Друзья решили немного подзаработать, но незапланированное убийство вмиг перемешало все задуманное, поставив на кон их жизни. Ставка слишком высока, но отступать некуда. Теперь парни прокладывают себе дорогу в криминальном мире и волею судеб превращаются в одну из самых сплоченных и влиятельных группировок…
Доп. информация: Данный DVDRip с PAL версии
У исходного DVD черные полосы сверху и снизу гуляют довольно сильно в течении серии - такое ощущение, что DVD монтировали из кусков через одно место!(Лучшего источника пока нету и не предвидеться). Поэтому, при просмотре в окне плеера(не на полный экран)иногда появляются черные полосы(иногда сверху иногда снизу) - это не недокроп, так задуманно, чтобы сильно не обрезать изображение и максимально приблизиться к исходному AR(правильные пропорции кадра)

Качество: DVDRip - AVC [DVD9]
Формат: MKV
Видео кодек: H.264
Аудио кодек: AC3
Видео: x264 720 х 432 pix 25 fps 1 570 Kbps 0.202 bit/pix
Аудио: AC-3 48.0 KHz 6 channels 448 Kbps

MI

General
Unique ID : 188434757475165477436590758562512317347 (0x8DC336D5B61C971892F371FFBE012BA3)
Complete name : C:\Documents and Settings\Администратор\Рабочий стол\Brigada_04_Seriya_DVDRip_by_Drek.mkv
Format : Matroska
File size : 740 MiB
Duration : 51mn 16s
Overall bit rate : 2 016 Kbps
Encoded date : UTC 2011-10-13 14:27:44
Writing application : mkvmerge v2.9.7 ('Tenderness') built on Jul 13 2009 22:24:14
Writing library : libebml v0.7.7 + libmatroska v0.8.1
Video
ID : 1
Format : AVC
Format/Info : Advanced Video Codec
Format profile : Main@L3.0
Format settings, CABAC : Yes
Format settings, ReFrames : 6 frames
Codec ID : V_MPEG4/ISO/AVC
Duration : 51mn 16s
Bit rate : 1 570 Kbps
Width : 720 pixels
Height : 432 pixels
Display aspect ratio : 1.667
Frame rate : 25.000 fps
Color space : YUV
Chroma subsampling : 4:2:0
Bit depth : 8 bits
Scan type : Progressive
Bits/(Pixel*Frame) : 0.202
Stream size : 561 MiB (76%)
Writing library : x264 core 68 r1181kMod 49bf767
Encoding settings : cabac=1 / ref=6 / deblock=1:-1:-1 / analyse=0x1:0x111 / me=umh / subme=7 / psy_rd=1.0:0.0 / mixed_ref=1 / me_range=16 / chroma_me=1 / trellis=0 / 8x8dct=0 / cqm=0 / deadzone=21,11 / chroma_qp_offset=-2 / threads=3 / nr=0 / decimate=1 / mbaff=0 / bframes=1 / b_pyramid=0 / b_adapt=0 / b_bias=0 / direct=0 / wpredb=1 / keyint=250 / keyint_min=25 / scenecut=40 / rc=2pass / bitrate=1570 / ratetol=1.0 / qcomp=0.60 / qpmin=10 / qpmax=51 / qpstep=4 / cplxblur=20.0 / qblur=0.5 / ip_ratio=1.40 / pb_ratio=1.30 / aq=1:1.00
Audio
ID : 2
Format : AC-3
Format/Info : Audio Coding 3
Mode extension : CM (complete main)
Codec ID : A_AC3
Duration : 51mn 16s
Bit rate mode : Constant
Bit rate : 448 Kbps
Channel(s) : 6 channels
Channel positions : Front: L C R, Side: L R, LFE
Sampling rate : 48.0 KHz
Bit depth : 16 bits
Compression mode : Lossy
Stream size : 164 MiB (22%)

[Цитировать]



Показать сообщения:    

Текущее время: 07-Дек 23:22

Часовой пояс: UTC + 3


Вы не можете начинать темы
Вы не можете отвечать на сообщения
Вы не можете редактировать свои сообщения
Вы не можете удалять свои сообщения
Вы не можете голосовать в опросах
Вы не можете прикреплять файлы к сообщениям
Вы не можете скачивать файлы

!ВНИМАНИЕ!
Сайт не предоставляет электронные версии произведений, а занимается лишь коллекционированием и каталогизацией ссылок, присылаемых и публикуемых на форуме нашими читателями. Если вы являетесь правообладателем какого-либо представленного материала и не желаете, чтобы ссылка на него находилась в нашем каталоге, свяжитесь с нами, и мы незамедлительно удалим ее. Файлы для обмена на трекере предоставлены пользователями сайта, и администрация не несет ответственности за их содержание. Просьба не заливать файлы, защищенные авторскими правами, а также файлы нелегального содержания!