[ Сегодня идет свободное скачивание без начисления Download ]


Статистика раздачи
Нет
 
   
 
Top  
 
 
Воронины
Год выпуска: 2011
Производство: «ГудСториМедиа» по заказу «Леан-М»
Жанр: Комедия
Продолжительность: ~ 00:25:00
Субтитры: Отсутствуют
Режиссёр: Александр Жигалкин, Леонид Коновалов
В ролях:Георгий (Егор) Дронов, Екатерина Волкова (II), Станислав Дужников, Борис Клюев, Анна Фроловцева, Кирилл Михин, Филипп Михин, Мария Ильюхина, Галина Стаханова, Алексей Якубов, Виктория Алашеева, Ольга Богданова, Татьяна Борисова, Наталья Винтилова, Александр Гришаев, Ирина Даниленко (III), Людмила Дмитриева, Андрей Ургант, Ирина Ефремова (II), Олег Кассин, Юлия Куварзина, Михаил Лебедев, Наталья Лесниковская, Олег Лопухов, Виктория Лукина, Ольга Милоянина, Елена Николаева (III), Татьяна Орлова, Галина Петрова, Дмитрий Прокофьев, Анастасия Сапожникова, Янина Студилина, Дарья Хорошилова, Виктор Андриенко, Константин Карасик, Наталья Хорохорина, Михаил Васьков, Алексей Ярмилко, Николай Аверюшкин, Марина Жукова, Зарина Каирова, Любовь Тихомирова, Дмитрий Горевой, Владимир Горюшин, Сергей Лобынцев, Владимир Кисаров, Ольга Лавренова, Алина Ольшанская, Юрий Внуков, Ксения Ильясова
Описание: История о молодой семье: Косте, Вере и их детях - пятилетней дочке и маленьких сыновьях – близняшках, а также ближайших родственниках – родителях Кости и его старшем брате Лене.
Качество: DVB
Формат: MPEG
Видео кодек: MPEG2
Аудио кодек: MPEG1 Layer 2
Видео: MPEG2 Video 720x576 (4:3) 25.00fps 5 816 Kbps, 0.561 bit/pixel
Аудио: MPEG Audio 48000Hz stereo 256 Кбит/сек

MI

Complete name : F:\TORENTRAZDACHI\Воронины-8 _DVB by CLIPMAN\Воронины-8.01 _DVB by CLIPMAN.mpg
Format : MPEG-PS
File size : 1.04 GiB
Duration : 23mn 57s
Overall bit rate : 6 196 Kbps
Video
ID : 224 (0xE0)
Format : MPEG Video
Format version : Version 2
Format profile : Main@Main
Format settings, BVOP : Yes
Format settings, Matrix : Default
Duration : 23mn 57s
Bit rate mode : Variable
Bit rate : 5 816 Kbps
Nominal bit rate : 15.0 Mbps
Width : 720 pixels
Height : 576 pixels
Display aspect ratio : 4:3
Frame rate : 25.000 fps
Standard : PAL
Color space : YUV
Chroma subsampling : 4:2:0
Bit depth : 8 bits
Scan type : Interlaced
Scan order : Top Field First
Bits/(Pixel*Frame) : 0.561
Stream size : 997 MiB (94%)
Audio
ID : 192 (0xC0)
Format : MPEG Audio
Format version : Version 1
Format profile : Layer 2
Mode : Dual mono
Duration : 23mn 57s
Bit rate mode : Constant
Bit rate : 256 Kbps
Channel(s) : 2 channels
Sampling rate : 48.0 KHz
Stream size : 43.9 MiB (4%)

Скриншоты

[Цитировать]



Показать сообщения:    

Текущее время: 11-Дек 16:46

Часовой пояс: UTC + 3


Вы не можете начинать темы
Вы не можете отвечать на сообщения
Вы не можете редактировать свои сообщения
Вы не можете удалять свои сообщения
Вы не можете голосовать в опросах
Вы не можете прикреплять файлы к сообщениям
Вы не можете скачивать файлы

!ВНИМАНИЕ!
Сайт не предоставляет электронные версии произведений, а занимается лишь коллекционированием и каталогизацией ссылок, присылаемых и публикуемых на форуме нашими читателями. Если вы являетесь правообладателем какого-либо представленного материала и не желаете, чтобы ссылка на него находилась в нашем каталоге, свяжитесь с нами, и мы незамедлительно удалим ее. Файлы для обмена на трекере предоставлены пользователями сайта, и администрация не несет ответственности за их содержание. Просьба не заливать файлы, защищенные авторскими правами, а также файлы нелегального содержания!