[ Сегодня идет свободное скачивание без начисления Download ]


Статистика раздачи
Нет
 
   
 
Top  
 
 
Агенты А.Н.К.Л. / The Man from U.N.C.L.E. (2015) BDRip [H.264/720p] [EN]
- Производство: США, Великобритания, Warner Bros., RatPac-Dune Entertainment, Wigram Productions
Жанр: боевик, комедия, приключения
Режиссер: Гай Ричи
Актеры: Генри Кавилл, Арми Хаммер, Алисия Викандер, Элизабет Дебики, Хью Грант, Лука Кальвани, Сильвестр Грот, Джаред Харрис, Кристиан Беркель, Миша Кузнецов, Гай Уильямс, Марианна Ди Мартино
Описание:
Наполеон Соло - агент ЦРУ, на счету которого огромное количество успешно проведенных операций. Он считается одним из лучших секретных агентов во всем мире, и с ним может сравниться только один человек - самый молодой и перспективный агент КГБ, Илья Курякин. Их противостояние переросло в настоящую войну, в которой никто не собирается уступать. Однако обстоятельства складываются так, что непримиримые враги вынуждены стать напарниками. Это происходит после того как спецслужбы двух стран обнаруживают международную преступную организацию, которой удалось создать ядерную бомбу...

Продолжительность: 01:56:29
Качество видео: BDRip
Перевод: Отсутствует
Язык озвучки: Английский
Видео: AVC, 1280x536 (2.40:1), 4730 kbps, 23,976 fps, 0,288 bpp
Аудио: английский / AC3 / 5.1 / 48 kHz / 640 kbps / 16 bit

MediaInfo

General
Unique ID                               \The Man from U.N.C.L.E.720p.mkv
Format                                   : Matroska
Format version                           : Version 4 / Version 2
File size                                : 4.37 GiB
Duration                                 : 1h 56mn
Overall bit rate                         : 5 370 Kbps
Encoded date                             : UTC 2015-11-06 17:11:10
Writing application                      : mkvmerge v8.3.0 ('Over the Horizon') 64bit
Writing library                          : libebml v1.3.1 + libmatroska v1.4.2
DURATION                                 : 01:56:29.760000000
NUMBER_OF_FRAMES                         : 218430
NUMBER_OF_BYTES                          : 559180800
_STATISTICS_WRITING_APP                  : mkvmerge v8.3.0 ('Over the Horizon') 64bit
_STATISTICS_WRITING_DATE_UTC             : 2015-11-06 17:11:10
_STATISTICS_TAGS                         : BPS DURATION NUMBER_OF_FRAMES NUMBER_OF_BYTES
Video
ID                                       : 1
Format                                   : AVC
Format/Info                              : Advanced Video Codec
Format profile                           : [email protected]
Format settings, CABAC                   : Yes
Format settings, ReFrames                : 5 frames
Codec ID                                 : V_MPEG4/ISO/AVC
Duration                                 : 1h 56mn
Bit rate                                 : 4 730 Kbps
Width                                    : 1 280 pixels
Height                                   : 536 pixels
Display aspect ratio                     : 2.40:1
Frame rate                               : 23.976 fps
Color space                              : YUV
Chroma subsampling                       : 4:2:0
Bit depth                                : 8 bits
Scan type                                : Progressive
Bits/(Pixel*Frame)                       : 0.288
Stream size                              : 3.76 GiB (86%)
Writing library                          : x264 core 148 r2638 7599210
Encoding settings                        : cabac=1 / ref=5 / deblock=1:0:0 / analyse=0x3:0x133 / me=umh / subme=7 / psy=1 / psy_rd=1.00:0.00 / mixed_ref=1 / me_range=16 / chroma_me=1 / trellis=1 / 8x8dct=1 / cqm=0 / deadzone=21,11 / fast_pskip=0 / chroma_qp_offset=-2 / threads=12 / lookahead_threads=2 / sliced_threads=0 / nr=0 / decimate=1 / interlaced=0 / bluray_compat=0 / constrained_intra=0 / bframes=3 / b_pyramid=2 / b_adapt=1 / b_bias=0 / direct=1 / weightb=1 / open_gop=0 / weightp=2 / keyint=250 / keyint_min=23 / scenecut=40 / intra_refresh=0 / rc_lookahead=40 / rc=2pass / mbtree=1 / bitrate=4730 / ratetol=1.0 / qcomp=0.60 / qpmin=0 / qpmax=69 / qpstep=4 / cplxblur=20.0 / qblur=0.5 / ip_ratio=1.40 / aq=1:1.00
Language                                 : English
Default                                  : Yes
Forced                                   : No
DURATION                                 : 01:56:29.661000000
NUMBER_OF_FRAMES                         : 167584
NUMBER_OF_BYTES                          : 4130998651
_STATISTICS_WRITING_APP                  : mkvmerge v8.3.0 ('Over the Horizon') 64bit
_STATISTICS_WRITING_DATE_UTC             : 2015-11-06 17:11:10
_STATISTICS_TAGS                         : BPS DURATION NUMBER_OF_FRAMES NUMBER_OF_BYTES
Audio
ID                                       : 2
Format                                   : AC-3
Format/Info                              : Audio Coding 3
Mode extension                           : CM (complete main)
Codec ID                                 : A_AC3
Duration                                 : 1h 56mn
Bit rate mode                            : Constant
Bit rate                                 : 640 Kbps
Channel(s)                               : 6 channels
Channel positions                        : Front: L C R, Side: L R, LFE
Sampling rate                            : 48.0 KHz
Bit depth                                : 16 bits
Compression mode                         : Lossy
Stream size                              : 533 MiB (12%)
Language                                 : English
Default                                  : Yes
Forced                                   : No
Menu
00:00:00.000                             : en:00:00:00.000
00:15:19.085                             : en:00:15:19.085
00:23:11.682                             : en:00:23:11.682
00:32:09.302                             : en:00:32:09.302
00:40:36.059                             : en:00:40:36.059
00:49:07.570                             : en:00:49:07.570
00:59:23.560                             : en:00:59:23.560
01:08:52.837                             : en:01:08:52.837
01:20:28.115                             : en:01:20:28.115
01:29:47.674                             : en:01:29:47.674
01:43:21.362                             : en:01:43:21.362
01:49:23.432                             : en:01:49:23.432
-Скриншоты:

[Цитировать]



Показать сообщения:    

Текущее время: 05-Дек 11:31

Часовой пояс: UTC + 3


Вы не можете начинать темы
Вы не можете отвечать на сообщения
Вы не можете редактировать свои сообщения
Вы не можете удалять свои сообщения
Вы не можете голосовать в опросах
Вы не можете прикреплять файлы к сообщениям
Вы не можете скачивать файлы

!ВНИМАНИЕ!
Сайт не предоставляет электронные версии произведений, а занимается лишь коллекционированием и каталогизацией ссылок, присылаемых и публикуемых на форуме нашими читателями. Если вы являетесь правообладателем какого-либо представленного материала и не желаете, чтобы ссылка на него находилась в нашем каталоге, свяжитесь с нами, и мы незамедлительно удалим ее. Файлы для обмена на трекере предоставлены пользователями сайта, и администрация не несет ответственности за их содержание. Просьба не заливать файлы, защищенные авторскими правами, а также файлы нелегального содержания!