[ Сегодня идет свободное скачивание без начисления Download ]


Статистика раздачи
Нет
 
   
 
Top  
 
 
Ферма Чарли / Charlie's Farm (2014) BDRip 1080p Информация о фильме
Название: Ферма Чарли
Оригинальное название: Charlie's Farm
Год выхода: 2014
Жанр: ужасы
Режиссер: Крис Сан
В ролях: Тара Рид, Нэйтан Джонс, Кэйн Ходдер, Билл Моусли, Allira Jaques, Дженна Шанель Хэйес, Дэвид Бимиш, Камерон Колфилд, Dean Kirkright, Мадлен Кеннеди, ...
О фильме: В попытке сделать что-то необычное четверо друзей отправляются вглубь Австралии, чтобы исследовать ферму Чарли — место, где жестокая семья была убита разъяренной толпой…

Официальный сайт
Страна: Австралия
Студия: Slaughter FX
Продолжительность: 01:33:04
Перевод:
Любительский (одноголосый, закадровый) Агапов Антон (datynet)
Любительский (одноголосый, закадровый) Хихикающий доктор
Файл
Кодек: x264
Качество: BDRip 1080p
Видео: 1920x820, 11000 kbps, 24 fps
Звук:
Аудио #1: AC-3, 6 ch, 448 kbps (Rus) - VO Агапов Антон (datynet)
Аудио #2: AC-3, 6 ch, 448 kbps (Rus) - VO Xixidok
Аудио #3: AC-3, 6 ch, 448 kbps (Eng)
Субтитры: Английские

MI

x264 [info]: frame I:985 Avg QP:11.90 size:225682
x264 [info]: frame P:31659 Avg QP:14.60 size:101040
x264 [info]: frame B:101389 Avg QP:16.67 size: 41951
x264 [info]: consecutive B-frames: 2.8% 3.4% 10.8% 25.1% 18.8% 32.9% 3.2% 0.9% 0.7% 0.5% 1.0%
Общее
Уникальный идентификатор : 224680735731362838643384549994359640952 (0xA907EF89323DA5348B37F730C61B5378)
Полное имя : C:TorrentФерма Чарли (Charlie's Farm) 2014 BDRip 1080p.mkv
Формат : Matroska
Версия формата : Version 2
Размер файла : 8,02 Гбайт
Продолжительность : 1 ч. 33 м.
Общий поток : 12,3 Мбит/сек
Дата кодирования : UTC 2015-11-07 08:44:06
Программа кодирования : mkvmerge v4.0.0 ('The Stars were mine') сборка от Jun 6 2010 16:18:42
Библиотека кодирования : libebml v1.0.0 + libmatroska v1.0.0
Видео
Идентификатор : 1
Формат : AVC
Формат/Информация : Advanced Video Codec
Профиль формата : High@L4.1
Параметр CABAC формата : Да
Параметр ReFrames формата : 5 кадров
Идентификатор кодека : V_MPEG4/ISO/AVC
Продолжительность : 1 ч. 33 м.
Битрейт : 11,0 Мбит/сек
Ширина : 1920 пикселей
Высота : 820 пикселей
Соотношение сторон : 2,35:1
Режим частоты кадров : Постоянный
Частота кадров : 24,000 кадра/сек
Цветовое пространство : YUV
Субдискретизация насыщенности : 4:2:0
Битовая глубина : 8 бит
Тип развёртки : Прогрессивная
Бит/(Пиксели*Кадры) : 0.291
Размер потока : 6,99 Гбайт (87%)
Библиотека кодирования : x264 core 146 r2538 121396c
Настройки программы : cabac=1 / ref=5 / deblock=1:-3:-3 / analyse=0x3:0x133 / me=umh / subme=10 / psy=1 / psy_rd=1.00:0.00 / mixed_ref=1 / me_range=32 / chroma_me=1 / trellis=2 / 8x8dct=1 / cqm=0 / deadzone=21,11 / fast_pskip=1 / chroma_qp_offset=-4 / threads=12 / lookahead_threads=2 / sliced_threads=0 / nr=0 / decimate=0 / interlaced=0 / bluray_compat=0 / constrained_intra=0 / bframes=10 / b_pyramid=2 / b_adapt=2 / b_bias=0 / direct=3 / weightb=1 / open_gop=0 / weightp=2 / keyint=240 / keyint_min=24 / scenecut=40 / intra_refresh=0 / rc_lookahead=60 / rc=2pass / mbtree=0 / bitrate=11000 / ratetol=1.0 / qcomp=0.60 / qpmin=0 / qpmax=69 / qpstep=4 / cplxblur=20.0 / qblur=0.5 / vbv_maxrate=50000 / vbv_bufsize=62500 / nal_hrd=none / filler=0 / ip_ratio=1.40 / pb_ratio=1.30 / aq=1:0.80
Язык : aus
Default : Нет
Forced : Нет
Аудио #1
Идентификатор : 2
Формат : AC-3
Формат/Информация : Audio Coding 3
Расширение режима : CM (complete main)
Параметр Endianness формата : Big
Идентификатор кодека : A_AC3
Продолжительность : 1 ч. 33 м.
Вид битрейта : Постоянный
Битрейт : 448 Кбит/сек
Каналы : 6 каналов
Расположение каналов : Front: L C R, Side: L R, LFE
Частота : 48,0 КГц
Метод сжатия : С потерями
Размер потока : 298 Мбайт (4%)
Заголовок : VO Агапов Антон (datynet)
Язык : Russian
Default : Нет
Forced : Нет
Аудио #2
Идентификатор : 3
Формат : AC-3
Формат/Информация : Audio Coding 3
Расширение режима : CM (complete main)
Параметр Endianness формата : Big
Идентификатор кодека : A_AC3
Продолжительность : 1 ч. 33 м.
Вид битрейта : Постоянный
Битрейт : 448 Кбит/сек
Каналы : 6 каналов
Расположение каналов : Front: L C R, Side: L R, LFE
Частота : 48,0 КГц
Метод сжатия : С потерями
Размер потока : 298 Мбайт (4%)
Заголовок : VO Xixidok
Язык : Russian
Default : Нет
Forced : Нет
Аудио #3
Идентификатор : 4
Формат : AC-3
Формат/Информация : Audio Coding 3
Расширение режима : CM (complete main)
Параметр Endianness формата : Big
Идентификатор кодека : A_AC3
Продолжительность : 1 ч. 33 м.
Вид битрейта : Постоянный
Битрейт : 448 Кбит/сек
Каналы : 6 каналов
Расположение каналов : Front: L C R, Side: L R, LFE
Частота : 48,0 КГц
Метод сжатия : С потерями
Размер потока : 298 Мбайт (4%)
Язык : English
Default : Нет
Forced : Нет
Текст
Идентификатор : 5
Формат : UTF-8
Идентификатор кодека : S_TEXT/UTF8
Идентификатор кодека/Информация : UTF-8 Plain Text
Язык : English
Default : Нет
Forced : Нет

Скриншоты


[Цитировать]



Показать сообщения:    

Текущее время: 08-Дек 14:57

Часовой пояс: UTC + 3


Вы не можете начинать темы
Вы не можете отвечать на сообщения
Вы не можете редактировать свои сообщения
Вы не можете удалять свои сообщения
Вы не можете голосовать в опросах
Вы не можете прикреплять файлы к сообщениям
Вы не можете скачивать файлы

!ВНИМАНИЕ!
Сайт не предоставляет электронные версии произведений, а занимается лишь коллекционированием и каталогизацией ссылок, присылаемых и публикуемых на форуме нашими читателями. Если вы являетесь правообладателем какого-либо представленного материала и не желаете, чтобы ссылка на него находилась в нашем каталоге, свяжитесь с нами, и мы незамедлительно удалим ее. Файлы для обмена на трекере предоставлены пользователями сайта, и администрация не несет ответственности за их содержание. Просьба не заливать файлы, защищенные авторскими правами, а также файлы нелегального содержания!