[ Сегодня идет свободное скачивание без начисления Download ]


Статистика раздачи
Нет
 
   
 
 
 
Губка Боб Квадратные Штаны 4 сезон Часть 1 / SpongeBob SquarePants - Season 4 Part 1 Год выпуска: 2006
Страна: USA
Производство: Nickelodeon
Жанр: мультфильм, комедия, семейный
Продолжительность: 12 минут серия
Перевод: Профессиональный (полное дублирование)
Русские субтитры: нет
Режиссер: Стивен Хилленбёрг, Марк Осборн, Алан Смарт, Пол Тиббит, Уолт Дорн
В ролях: Том Кенни, Билл Фагербакки, Роджер Бампасс, Клэнси Браун, Ди Брэдли Бейкер, Мистер Лоуренс, Сирена Ирвин, Кэролин Лоуренс, Джилл Тэлли, Мэри Джо Кэтлетт.
Описание: Жизнерадостная морская губка Боб живет в подводном райском городишке. Вы не найдете его на карте, так как: кто же вам выдаст самое потрясающее место под водой! Здесь все по-другому: медуз коллекционируют как бабочек, морские водоросли, качающиеся из стороны в сторону, создают красивейшие музыкальные симфонии, а деликатесом считается крабовый бутерброд. Хотите узнать побольше о таком заманчивом местечке? Познакомьтесь поближе с Мочалкой Бобом Квадратные Штаны!

Список серий:

1й диск
Ужас Крабсбургера
Панцирь для мужчины
Потерянный матрац
Крабс против Планктона
Вы не видели мою улитку?
2й диск
Ловкий кран
Хорошие соседи
Все на продажу
Смешливые штаны
Остолопы и драконы
3й диск
Морской супермен и Малыш ковбой 6
Породниться с врагом
Патрик - умные штаны
Сквидбоб Тентикал Пэнтс
Красти взмывает ввысь
Миссис Пафф, вы уволены
Гость - призрак
Колодец желаний
Качество: DVD5 (Custom)
Формат: DVD-Video
Видео: NTSC 720x480 (4:3) @ 640x480, 29.970 fps, MPEG-2 Video, ~7125 Kbps, 0.688 bits/pixel
Аудио 1: Russian (48.0 KHz, AC3, 2 ch, 192 Kbps) Дубляж
Аудио 2: English (48.0 KHz, AC3, 2 ch, 192 Kbps)

DVDInfo

Title: SB S4D1Size: 4.37 Gb ( 4 585 472,00 KBytes ) - DVD-5Enabled regions: 1, 2, 3, 4, 5, 6
VTS_01 : Play Length: 01:09:11 Video: NTSC 4:3 (720x480) VBR Audio: English, AC3, 2/0 (L,R) ch, 192 kbps, Delay 0 mSec Russian, AC3, 2/0 (L,R) ch, 192 kbps, Delay 703 mSec
VTS_02 : Play Length: 00:12:12 Video: NTSC 4:3 (720x480) VBR Audio: English (Dolby AC3, 2 ch)

MediaInfo

GeneralComplete name : H:\DVD\Spongebob Squarepants Season 4\SB S4D1\VIDEO_TS\VTS_01_2.VOBFormat : MPEG-PSFile size : 1 024 MiBDuration : 18mn 40sOverall bit rate mode : VariableOverall bit rate : 7 662 Kbps
VideoID : 224 (0xE0)Format : MPEG VideoFormat version : Version 2Format profile : Main@MainFormat settings, BVOP : YesFormat settings, Matrix : CustomDuration : 18mn 40sBit rate mode : VariableBit rate : 7 125 KbpsMaximum bit rate : 9 800 KbpsWidth : 720 pixelsHeight : 480 pixelsDisplay aspect ratio : 4:3Frame rate : 29.970 fpsStandard : ComponentColor space : YUVChroma subsampling : 4:2:0Bit depth : 8 bitsScan type : InterlacedScan order : Top Field FirstCompression mode : LossyBits/(Pixel*Frame) : 0.688Stream size : 952 MiB (93%)
Audio #1ID : 189 (0xBD)-128 (0x80)Format : AC-3Format/Info : Audio Coding 3Mode extension : CM (complete main)Muxing mode : DVD-VideoDuration : 18mn 40sBit rate mode : ConstantBit rate : 192 KbpsChannel(s) : 2 channelsChannel positions : Front: L RSampling rate : 48.0 KHzBit depth : 16 bitsCompression mode : LossyDelay relative to video : -398msStream size : 25.7 MiB (3%)
Audio #2ID : 189 (0xBD)-129 (0x81)Format : AC-3Format/Info : Audio Coding 3Mode extension : CM (complete main)Muxing mode : DVD-VideoDuration : 18mn 40sBit rate mode : ConstantBit rate : 192 KbpsChannel(s) : 2 channelsChannel positions : Front: L RSampling rate : 48.0 KHzBit depth : 16 bitsCompression mode : LossyDelay relative to video : -367msStream size : 25.7 MiB (3%)
TextID : 224 (0xE0)-DVD-2Format : EIA-608Muxing mode : DVD-VideoMuxing mode, more info : Muxed in Video #1Bit rate mode : ConstantStream size : 0.00 Byte (0%)
Menu

[Цитировать]



Показать сообщения:    

Текущее время: 08-Дек 19:14

Часовой пояс: UTC + 3


Вы не можете начинать темы
Вы не можете отвечать на сообщения
Вы не можете редактировать свои сообщения
Вы не можете удалять свои сообщения
Вы не можете голосовать в опросах
Вы не можете прикреплять файлы к сообщениям
Вы не можете скачивать файлы

!ВНИМАНИЕ!
Сайт не предоставляет электронные версии произведений, а занимается лишь коллекционированием и каталогизацией ссылок, присылаемых и публикуемых на форуме нашими читателями. Если вы являетесь правообладателем какого-либо представленного материала и не желаете, чтобы ссылка на него находилась в нашем каталоге, свяжитесь с нами, и мы незамедлительно удалим ее. Файлы для обмена на трекере предоставлены пользователями сайта, и администрация не несет ответственности за их содержание. Просьба не заливать файлы, защищенные авторскими правами, а также файлы нелегального содержания!