[ Сегодня идет свободное скачивание без начисления Download ]


Статистика раздачи
Нет
 
   
 
Top  
 
 
Дураков нет / Nobody's Fool (1994) WEB-DLRip-AVC Производство: США, Capella International, Cinehaus, Paramount Pictures
Жанр: Драма, Комедия
Режиссер: Роберт Бентон
Актеры: Пол Ньюман, Брюс Уиллис, Мелани Гриффит, Джессика Тэнди, Дилан Уолш, Прюитт Тейлор Винс, Джин Сэкс, Йозеф Зоммер, Филип Сеймур Хоффман, Филип Боско, Кэтрин Дент, Александр Гудвин, Карл Дж. Матусович, Джей Пэттерсон, Джерри Майер, Анджела Пьетропинто, Элис Драммонд, Марго Мартиндейл, Анджелика Торн, Ричард Мэйв, Джо Папароне, Маркус Пауэлл
Описание:
Главный герой - бескомпромиссный старик, снимающий комнату у еще более древней старушки и пытающийся отвоевать у своего работодателя компенсацию за травму колена. Это ему не очень-то удается «благодаря» одноногому адвокату, да еще полицейский на улице останавливает, чтобы всучить очередной штраф. А тут еще в город на день благодарения приезжает его сын и вновь всплывают старые конфликты и уже подзабытые обиды.

Продолжительность: 01:50:12
Качество видео: WEB-DLRip-AVC
Перевод: Профессиональный (двухголосый закадровый) х2, авторский (одноголосый закадровый) Сергей Визгунов
Язык субтитров: Английский
Вид субтитров: Вшитые отключаемые
Видео: AVC, 1024x576 (16:9), 23.976 fps, 2 321 Kbps (0.164 bit/pixel)
Аудио #1: AC-3, 48.0 KHz, 1 ch, 128 Kbps, CBR (Russian) - двухголосый
Аудио #2: AC-3, 48.0 KHz, 2 ch, 192 Kbps, CBR (Russian) - двухголосый (НТВ+)
Аудио #3: AC-3, 48.0 KHz, 2 ch, 192 Kbps, CBR (Russian) - авторский

Mediainfo:

x264 [info]: frame I:1357 Avg QP:15.43 size: 92185
x264 [info]: frame P:40897 Avg QP:18.01 size: 26345
x264 [info]: frame B:116276 Avg QP:20.47 size: 6150
Формат : Matroska
Версия формата : Version 2
Размер файла : 2,18 Гбайт
Продолжительность : 1 ч. 50 м.
Общий поток : 2833 Кбит/сек
Название фильма : Nobody's Fool (1994)
Дата кодирования : UTC 2015-11-08 22:30:43
Программа кодирования : mkvmerge v5.3.0 ('I could have danced') built on Feb 9 2012 10:38:07
Библиотека кодирования : libebml v1.2.3 + libmatroska v1.3.0
Attachment : Yes
Видео
Идентификатор : 1
Формат : AVC
Формат/Информация : Advanced Video Codec
Профиль формата : [email protected]
Параметр CABAC формата : Да
Параметр ReFrames формата : 8 кадров
Режим смешивания : Header stripping
Идентификатор кодека : V_MPEG4/ISO/AVC
Продолжительность : 1 ч. 50 м.
Битрейт : 2321 Кбит/сек
Ширина : 1024 пикселя
Высота : 576 пикселей
Соотношение сторон : 16:9
Режим частоты кадров : Постоянный
Частота кадров : 23,976 кадра/сек
Цветовое пространство : YUV
Субдискретизация насыщенности : 4:2:0
Битовая глубина : 8 бит
Тип развёртки : Прогрессивная
Бит/(Пиксели*Кадры) : 0.164
Размер потока : 1,74 Гбайт (80%)
Библиотека кодирования : x264 core 146 r2538 121396c
Настройки программы : cabac=1 / ref=8 / deblock=1:-3:-3 / analyse=0x3:0x133 / me=umh / subme=10 / psy=1 / psy_rd=1.00:0.15 / mixed_ref=1 / me_range=32 / chroma_me=1 / trellis=2 / 8x8dct=1 / cqm=0 / deadzone=21,11 / fast_pskip=0 / chroma_qp_offset=-3 / threads=12 / lookahead_threads=1 / sliced_threads=0 / nr=0 / decimate=0 / interlaced=0 / bluray_compat=0 / constrained_intra=0 / bframes=6 / b_pyramid=2 / b_adapt=2 / b_bias=0 / direct=3 / weightb=1 / open_gop=0 / weightp=2 / keyint=240 / keyint_min=23 / scenecut=40 / intra_refresh=0 / rc=2pass / mbtree=0 / bitrate=2321 / ratetol=1.0 / qcomp=0.60 / qpmin=0 / qpmax=69 / qpstep=4 / cplxblur=20.0 / qblur=0.5 / ip_ratio=1.40 / pb_ratio=1.30 / aq=1:0.90
Язык : English
Default : Да
Forced : Нет
Аудио #1
Идентификатор : 2
Формат : AC-3
Формат/Информация : Audio Coding 3
Расширение режима : CM (complete main)
Параметр Endianness формата : Big
Режим смешивания : Header stripping
Идентификатор кодека : A_AC3
Продолжительность : 1 ч. 50 м.
Вид битрейта : Постоянный
Битрейт : 128 Кбит/сек
Каналы : 1 канал
Расположение каналов : Front: C
Частота : 48,0 КГц
Битовая глубина : 16 бит
Метод сжатия : С потерями
Размер потока : 101 Мбайт (5%)
Заголовок : AC3 1.0 ch @ 128 kbps - DVO (VHS)
Язык : Russian
Default : Да
Forced : Нет
Аудио #2
Идентификатор : 3
Формат : AC-3
Формат/Информация : Audio Coding 3
Расширение режима : CM (complete main)
Параметр Endianness формата : Big
Режим смешивания : Header stripping
Идентификатор кодека : A_AC3
Продолжительность : 1 ч. 50 м.
Вид битрейта : Постоянный
Битрейт : 192 Кбит/сек
Каналы : 2 канала
Расположение каналов : Front: L R
Частота : 48,0 КГц
Битовая глубина : 16 бит
Метод сжатия : С потерями
Размер потока : 151 Мбайт (7%)
Заголовок : AC3 2.0 ch @ 192 kbps - DVO (НТВ)
Язык : Russian
Default : Нет
Forced : Нет
Аудио #3
Идентификатор : 4
Формат : AC-3
Формат/Информация : Audio Coding 3
Расширение режима : CM (complete main)
Параметр Endianness формата : Big
Режим смешивания : Header stripping
Идентификатор кодека : A_AC3
Продолжительность : 1 ч. 50 м.
Вид битрейта : Постоянный
Битрейт : 192 Кбит/сек
Каналы : 2 канала
Расположение каналов : Front: L R
Частота : 48,0 КГц
Битовая глубина : 16 бит
Метод сжатия : С потерями
Размер потока : 151 Мбайт (7%)
Заголовок : AC3 2.0 ch @ 192 kbps - AVO (С. Визгунов)
Язык : Russian
Default : Нет
Forced : Нет
Текст
Идентификатор : 5
Формат : UTF-8
Идентификатор кодека : S_TEXT/UTF8
Идентификатор кодека/Информация : UTF-8 Plain Text
Заголовок : Full
Язык : English
Default : Нет
Forced : Нет
Меню
00:00:00.000 : en:Chapter 1
00:14:57.000 : en:Chapter 2
00:30:00.000 : en:Chapter 3
00:45:25.000 : en:Chapter 4
01:00:06.000 : en:Chapter 5
01:16:21.000 : en:Chapter 6
01:30:53.000 : en:Chapter 7
01:46:26.000 : en:Chapter 8
Скриншоты:

[Цитировать]



Показать сообщения:    

Текущее время: 05-Дек 01:28

Часовой пояс: UTC + 3


Вы не можете начинать темы
Вы не можете отвечать на сообщения
Вы не можете редактировать свои сообщения
Вы не можете удалять свои сообщения
Вы не можете голосовать в опросах
Вы не можете прикреплять файлы к сообщениям
Вы не можете скачивать файлы

!ВНИМАНИЕ!
Сайт не предоставляет электронные версии произведений, а занимается лишь коллекционированием и каталогизацией ссылок, присылаемых и публикуемых на форуме нашими читателями. Если вы являетесь правообладателем какого-либо представленного материала и не желаете, чтобы ссылка на него находилась в нашем каталоге, свяжитесь с нами, и мы незамедлительно удалим ее. Файлы для обмена на трекере предоставлены пользователями сайта, и администрация не несет ответственности за их содержание. Просьба не заливать файлы, защищенные авторскими правами, а также файлы нелегального содержания!