[ Сегодня идет свободное скачивание без начисления Download ]


Статистика раздачи
Нет
 
   
 
Top  
 
 
Губка Боб Квадратные Штаны 1 сезон / SpongeBob SquarePants
Cезон 1 Эпизоды 1 с 41 по (41)
- Год выпуска: 1999
Страна: США
Производство: Nickelodeon
Жанр: мультфильм, фэнтези, комедия, семейный
Перевод: Профессиональный (дублированный)
Cубтитры: нет-Режиссёр: Алан Смарт / Alan Smart, Уильям Рейсс / William Reiss, Пол Тиббит / Paul Tibbitt
В ролях: Том Кенни, Билл Фагербакки, Роджер Бампасс, Клэнси Браун, Ди Брэдли Бейкер, Мистер Лоуренс, Сирена Ирвин, Кэролин Лоуренс, Джилл Тэлли, Мэри Джо Кэтлетт.-Описание: Население подводного городка Бикини Боттом составляют разные морские обитатели. Среди них — лучший друг Спанч Боба, морская звезда по имени Патрик, раздражительный надменный кальмар Сквидвард и белка по имени Сэнди, которая тоже живёт под водой, используя гидрокостюм. Спанч Боб работает поваром в закусочной «Красти Краб», которая управляется старым скрягой мистером Крабсом- -Качество: DVDRip
Продолжительность: ~12 мин
Формат: AVI
Видео кодек: XviD
Аудио кодек: MP3
Видео: 640x480 (1.33:1), 23.976 fps, XviD build 64 ~1800 kbps avg, 0.24 bit/pixel
Аудио: MPEG Audio Layer 3 48000Hz stereo 128kbps

MediaInfo

Format : AVI
Format/Info : Audio Video Interleave
File size : 153 MiB
Duration : 11mn 7s
Overall bit rate : 1 918 Kbps
Writing application : VirtualDubMod 1.5.10.3 | www.virtualdub-fr.org || (build 2550/release)
Writing library : VirtualDubMod build 2550/release
Video
ID : 0
Format : MPEG-4 Visual
Format profile : Advanced [email protected]
Format settings, BVOP : 1
Format settings, QPel : No
Format settings, GMC : No warppoints
Format settings, Matrix : Custom
Codec ID : XVID
Codec ID/Hint : XviD
Duration : 11mn 7s
Bit rate : 1 781 Kbps
Width : 640 pixels
Height : 480 pixels
Display aspect ratio : 4:3
Frame rate : 23.976 fps
Color space : YUV
Chroma subsampling : 4:2:0
Bit depth : 8 bits
Scan type : Progressive
Compression mode : Lossy
Bits/(Pixel*Frame) : 0.242
Stream size : 142 MiB (93%)
Writing library : XviD 64
Audio
ID : 1
Format : MPEG Audio
Format version : Version 1
Format profile : Layer 3
Codec ID : 55
Codec ID/Hint : MP3
Duration : 11mn 7s
Bit rate mode : Constant
Bit rate : 128 Kbps
Channel(s) : 2 channels
Sampling rate : 48.0 KHz
Compression mode : Lossy
Stream size : 10.2 MiB (7%)
Alignment : Aligned on interleaves
Interleave, duration : 42 ms (1.00 video frame)
Interleave, preload duration : 504 ms

Скриншоты


Список серий

0. Требуется помощник (пилотная серия)
1. Подводный пылесос (Reef Blowers)
2. Чаепитие под куполом (Tea at the Treedome)
3. Мыльные пузыри (Bubblestand)
4. Порванные штаны (Ripped Pants)
5. Ловля медуз (Jellyfishing)
6. Планктон (Plankton!)
7. Капризные соседи (Naughty Nautical Neighbors)
8. Школа управления катерами (Boating School)
9. Доставка пиццы (Pizza Delivery)
10. Дом, милый ананас (Home Sweet Pineapple)
11. Морской супермен и очкарик (Mermaid Man and Barnacle Boy)
12. Пикули (Pickles)
13. Дежурный по школе (Hall Monitor)
14. Вечеринка медуз (Jellyfish Jam)
15. Ракета Сэнди (Sandy's Rocket)
16. Скрипучие сапоги (Squeaky Boots)
17. Без штанов (Nature Pants)
18. День наоборот (Opposite Day)
19. Культурный шок (Culture Shock)
20. Веселье (F.U.N.)
21. Мускул Боб могучие штаны (MuscleBob BuffPants)
22. Сквидвард - недружелюбный призрак (Squidward, the Unfriendly Ghost)
23. Кавалер (The Chaperone)
24. Работник месяца (Employee of the Month)
25. Трусливые штаны (Scaredy Pants)
26. Я был подростком, Герри (I Was a Teen-age Gary)
27. СБ-129 (SB-129)
28. Любители каратэ (Karate Choppers)
29. Время снов (Sleepy Time)
30. Пена (Suds)
31. День святого Валентина (Valentine's Day)
32. Бумажка (The Paper)
33. Карамба! (Arrgh!)
34. Каменная бездна (Rock Bottom)
35. Техас (Texas)
36. Мелкий бег (Walking Small)
37. Апрельские розыгрыши (Fools in April)
38. Лопатка Нептуна (Neptune's Spatula)
39. Крючки (Hooky)
40. Морской супермен и очкарик 2 (Mermaid Man and Barnacle Boy II)
-

[Цитировать]



Показать сообщения:    

Текущее время: 06-Дек 08:51

Часовой пояс: UTC + 3


Вы не можете начинать темы
Вы не можете отвечать на сообщения
Вы не можете редактировать свои сообщения
Вы не можете удалять свои сообщения
Вы не можете голосовать в опросах
Вы не можете прикреплять файлы к сообщениям
Вы не можете скачивать файлы

!ВНИМАНИЕ!
Сайт не предоставляет электронные версии произведений, а занимается лишь коллекционированием и каталогизацией ссылок, присылаемых и публикуемых на форуме нашими читателями. Если вы являетесь правообладателем какого-либо представленного материала и не желаете, чтобы ссылка на него находилась в нашем каталоге, свяжитесь с нами, и мы незамедлительно удалим ее. Файлы для обмена на трекере предоставлены пользователями сайта, и администрация не несет ответственности за их содержание. Просьба не заливать файлы, защищенные авторскими правами, а также файлы нелегального содержания!