[ Сегодня идет свободное скачивание без начисления Download ]


Статистика раздачи
Нет
 
   
 
Top  
 
 
Последний урок / La journée de la jupe (2008) BDRip 720p Информация о фильме
Жанр: Драма
Режиссер: Жан-Поль Лильенфельд
Актеры: Изабель Аджани, Дени Подалидес, Янн Коллетт, Натали Безансон, Марк Китти, Янн Эбонж, Карим Закрауи, Кевин Азиз, Халид Беркуз, Сара Дуали
Описание:
Обычная школьная учительница находится на грани нервного срыва из-за постоянных угроз и издевательств своих учеников — детей из неблагополучных семей. Руководство бездействует, предпочитая игнорировать тревожные признаки назревающей трагедии. Во время очередного урока, в ходе потасовки с главарём школьной банды, она завладевает настоящим пистолетом. Раздаются выстрелы. Испуганные подростки оказываются в заложниках у собственной учительницы.
Сложившуюся ситуацию уже никто не в состоянии контролировать. Снаружи — готовая к захвату опергруппа, внутри — притихшие, но озлобленные дети, вынужденные учить Мольера под дулом револьвера в руках одинокой и растерянной женщины. Трагическая развязка близка. Но пока ещё есть время, они вместе пробуют разобраться, откуда у этих ребят накопилось столько злобы и ненависти к окружающему миру.

Производство: Франция, Бельгия | Mascaret Films, Arte France
Продолжительность: 01:27:01
Перевод: Многоголосый закадровый, Двуголосый закадровый
Язык субтитров: Русский, Украинский, Английский
Вид субтитров: Вшитые
Файл
Качество видео: BDRip 720p
Видео: AVC/H.264, 1280x720 (16:9), ~6122 kbps
Аудио 1: 48 kHz, AC3, 6 ch, 640.00 kbps, Русский (Многоголосый закадровый - R5)
Аудио 2: 48 kHz, AC3, 2 ch, 192.00 kbps, Украинский (Двуголосый закадровый - TVi)
Aудио 3: 48 kHz, AC3, 6 ch, 640.00 kbps, Французский
Aудио 4: 48 kHz, AAC, 2 ch, ~132.00 kbps avg, Французский (Commentary)

M/I

Общее
Уникальный идентификатор : 198062354075563739782288039636603088034 (0x95016BFED1EF78BF80825EAA834DACA2)
Полное имя : D:TORRENTFILMSLa.journee.de.la.jupe.2008.720p.BluRay.Rus.Fre.mkv
Формат : Matroska
Версия формата : Version 4 / Version 2
Размер файла : 4,70 Гбайт
Продолжительность : 1 ч. 27 м.
Общий поток : 7730 Кбит/сек
Дата кодирования : UTC 2015-06-18 15:07:00
Программа кодирования : mkvmerge v7.9.0 ('Birds') 64bit
Библиотека кодирования : libebml v1.3.1 + libmatroska v1.4.2
Attachements : cover.jpg
DURATION : 01:22:02.080000000
NUMBER_OF_FRAMES : 1241
NUMBER_OF_BYTES : 41698
_STATISTICS_WRITING_APP : mkvmerge v7.9.0 ('Birds') 64bit
_STATISTICS_WRITING_DATE_UTC : 2015-06-18 15:07:00
_STATISTICS_TAGS : BPS DURATION NUMBER_OF_FRAMES NUMBER_OF_BYTES
Видео
Идентификатор : 1
Формат : AVC
Формат/Информация : Advanced Video Codec
Профиль формата : High@L4.1
Параметр CABAC формата : Да
Параметр ReFrames формата : 9 кадров
Идентификатор кодека : V_MPEG4/ISO/AVC
Продолжительность : 1 ч. 27 м.
Ширина : 1280 пикселей
Высота : 720 пикселей
Соотношение сторон : 16:9
Режим частоты кадров : Постоянный
Частота кадров : 25,000 кадров/сек
Цветовое пространство : YUV
Субдискретизация насыщенности : 4:2:0
Битовая глубина : 8 бит
Тип развёртки : Прогрессивная
Библиотека кодирования : x264 core 146 r0+2586 e393126 t_mod_Custom [8-bit@all X86_64]
Настройки программы : cabac=1 / ref=9 / deblock=1:-3:-3 / analyse=0x3:0x133 / me=umh / subme=11 / psy=1 / fade_compensate=0.00 / psy_rd=1.00:0.05 / mixed_ref=1 / me_range=24 / chroma_me=1 / trellis=2 / 8x8dct=1 / cqm=0 / deadzone=21,11 / fast_pskip=0 / chroma_qp_offset=-3 / threads=6 / lookahead_threads=1 / sliced_threads=0 / nr=0 / decimate=1 / interlaced=0 / bluray_compat=0 / constrained_intra=0 / fgo=0 / bframes=12 / b_pyramid=2 / b_adapt=2 / b_bias=0 / direct=3 / weightb=1 / open_gop=0 / weightp=2 / keyint=250 / keyint_min=25 / scenecut=40 / intra_refresh=0 / rc_lookahead=60 / rc=crf / mbtree=0 / crf=17.0000 / qcomp=0.70 / qpmin=0:0:0 / qpmax=69:69:69 / qpstep=4 / vbv_maxrate=62500 / vbv_bufsize=78125 / crf_max=0.0 / nal_hrd=none / filler=0 / ip_ratio=1.30 / pb_ratio=1.20 / aq=1:0.85 / aq-sensitivity=10.00 / aq-factor=1.00:1.00:1.00 / aq2=0 / aq3=0
Язык : English
Default : Да
Forced : Нет
Основные цвета : BT.709
Характеристики трансфера : BT.709
Коэффициенты матрицы : BT.709
colour_range : Limited
DURATION : 01:27:02.040000000
NUMBER_OF_FRAMES : 130551
NUMBER_OF_BYTES : 3996734758
_STATISTICS_WRITING_APP : mkvmerge v7.9.0 ('Birds') 64bit
_STATISTICS_WRITING_DATE_UTC : 2015-06-18 15:07:00
_STATISTICS_TAGS : BPS DURATION NUMBER_OF_FRAMES NUMBER_OF_BYTES
Аудио #1
Идентификатор : 2
Формат : AC-3
Формат/Информация : Audio Coding 3
Расширение режима : CM (complete main)
Параметр Endianness формата : Big
Идентификатор кодека : A_AC3
Продолжительность : 1 ч. 27 м.
Вид битрейта : Постоянный
Битрейт : 640 Кбит/сек
Каналы : 6 каналов
Расположение каналов : Front: L C R, Side: L R, LFE
Частота : 48,0 КГц
Битовая глубина : 16 бит
Метод сжатия : С потерями
Размер потока : 398 Мбайт (8%)
Заголовок : Многоголосый закадровый, R5
Язык : Russian
Default : Да
Forced : Нет
Аудио #2
Идентификатор : 3
Формат : AC-3
Формат/Информация : Audio Coding 3
Расширение режима : CM (complete main)
Параметр Endianness формата : Big
Идентификатор кодека : A_AC3
Продолжительность : 1 ч. 27 м.
Вид битрейта : Постоянный
Битрейт : 192 Кбит/сек
Каналы : 2 канала
Расположение каналов : Front: L R
Частота : 48,0 КГц
Битовая глубина : 16 бит
Метод сжатия : С потерями
Размер потока : 120 Мбайт (2%)
Заголовок : Двухголосый закадровый, TVi
Язык : Ukrainian
Default : Нет
Forced : Нет
Аудио #3
Идентификатор : 4
Формат : AC-3
Формат/Информация : Audio Coding 3
Расширение режима : CM (complete main)
Параметр Endianness формата : Big
Идентификатор кодека : A_AC3
Продолжительность : 1 ч. 27 м.
Вид битрейта : Постоянный
Битрейт : 640 Кбит/сек
Каналы : 6 каналов
Расположение каналов : Front: L C R, Side: L R, LFE
Частота : 48,0 КГц
Битовая глубина : 16 бит
Метод сжатия : С потерями
Размер потока : 398 Мбайт (8%)
Язык : French
Default : Нет
Forced : Нет
Аудио #4
Идентификатор : 5
Формат : AAC
Формат/Информация : Advanced Audio Codec
Профиль формата : LC
Идентификатор кодека : A_AAC
Продолжительность : 1 ч. 27 м.
Каналы : 2 канала
Расположение каналов : Front: L R
Частота : 48,0 КГц
Метод сжатия : С потерями
Задержка видео : 9 мс.
Заголовок : commentary
Язык : French
Default : Нет
Forced : Нет
Текст #1
Идентификатор : 6
Формат : UTF-8
Идентификатор кодека : S_TEXT/UTF8
Идентификатор кодека/Информация : UTF-8 Plain Text
Язык : Russian
Default : Нет
Forced : Нет
Текст #2
Идентификатор : 7
Формат : UTF-8
Идентификатор кодека : S_TEXT/UTF8
Идентификатор кодека/Информация : UTF-8 Plain Text
Язык : Ukrainian
Default : Нет
Forced : Нет
Текст #3
Идентификатор : 8
Формат : UTF-8
Идентификатор кодека : S_TEXT/UTF8
Идентификатор кодека/Информация : UTF-8 Plain Text
Язык : English
Default : Нет
Forced : Нет
Меню
00:00:00.000 : en:00:00:00.000
00:08:06.959 : en:00:08:06.959
00:13:57.440 : en:00:13:57.440
00:19:46.160 : en:00:19:46.160
00:24:47.000 : en:00:24:47.000
00:31:03.598 : en:00:31:03.598
00:35:27.000 : en:00:35:27.000
00:40:28.800 : en:00:40:28.800
00:43:24.239 : en:00:43:24.239
00:48:25.079 : en:00:48:25.079
00:51:39.000 : en:00:51:39.000
00:58:10.320 : en:00:58:10.320
01:05:50.880 : en:01:05:50.880
01:12:01.238 : en:01:12:01.238
01:19:11.880 : en:01:19:11.880
01:23:50.198 : en:01:23:50.198

Скриншоты

[Цитировать]



Показать сообщения:    

Текущее время: 07-Дек 21:12

Часовой пояс: UTC + 3


Вы не можете начинать темы
Вы не можете отвечать на сообщения
Вы не можете редактировать свои сообщения
Вы не можете удалять свои сообщения
Вы не можете голосовать в опросах
Вы не можете прикреплять файлы к сообщениям
Вы не можете скачивать файлы

!ВНИМАНИЕ!
Сайт не предоставляет электронные версии произведений, а занимается лишь коллекционированием и каталогизацией ссылок, присылаемых и публикуемых на форуме нашими читателями. Если вы являетесь правообладателем какого-либо представленного материала и не желаете, чтобы ссылка на него находилась в нашем каталоге, свяжитесь с нами, и мы незамедлительно удалим ее. Файлы для обмена на трекере предоставлены пользователями сайта, и администрация не несет ответственности за их содержание. Просьба не заливать файлы, защищенные авторскими правами, а также файлы нелегального содержания!