[ Сегодня идет свободное скачивание без начисления Download ]


Статистика раздачи
Нет
 
   
 
Top  
 
 
Дюймовочка / Thumbelina (1994) Информация о фильме
Название: Дюймовочка
Оригинальное название: Thumbelina
Год выхода: 1994
Жанр: мультфильм, фэнтези, семейный
Режиссер: Дон Блут, Гари Голдман
В ролях: Джоди Бенсон, Джино Конфорти, Барбара Кук, Уилл Райан, Джун Форэй, Кеннет Марс, Гари Имхофф, Джо Линч, Чаро, Дэнни Манн...
О фильме:
Маленькая Дюймовочка — храбрая девочка, она не боится испытаний и опасных приключений, подстерегающих ее в большом мире. Дюймовочка не перестает попадать из огня да в полымя.
После многих злоключений, потерявшаяся и одна-одинешенька Дюймовочка становится добычей мрачной мыши Моны, которая обещает ей кров и стол, если она выйдет замуж за затворника мистера Крота. Когда же настает день свадьбы… Дюймовочка выходит замуж, но не за крота, а за принца — и становится Принцессой!

Страна: США, Ирландия
Продолжительность: 01:26:32
Перевод: Дубляж
Файл
Кодек: H264
Качество: BDRip 1080p
Видео: 1920x1040, 6615 Kbps, 23,976 fps
Звук: 48 kHz, AC3, 2c, 192 kbps (Дубляж)
Звук: 48 kHz, AC3, 6c, 384 kbps (Профессиональный (многоголосый, закадровый) 20th Century Fox)
Субтитры: Русские, английские
Семпл

MI

Общее
Уникальный идентификатор : 216809028716417584667418202486048209594 (0xA31BE66A740143E28101999020A2BABA)
Формат : Matroska
Версия формата : Version 4 / Version 2
Размер файла : 4,35 Гбайт
Продолжительность : 1 ч. 26 м.
Общий поток : 7193 Кбит/сек
Название фильма : Thumbelina (1994) BDRip 1080p от Dimok
Дата кодирования : UTC 2013-01-28 20:44:45
Программа кодирования : mkvmerge v6.0.0 ('Coming Up For Air') built on Jan 20 2013 09:52:00
Библиотека кодирования : libebml v1.3.0 + libmatroska v1.4.0
Attachment : Yes
Видео
Идентификатор : 1
Формат : AVC
Формат/Информация : Advanced Video Codec
Профиль формата : [email protected]
Параметр CABAC формата : Да
Параметр ReFrames формата : 4 кадра
Идентификатор кодека : V_MPEG4/ISO/AVC
Продолжительность : 1 ч. 26 м.
Битрейт : 6615 Кбит/сек
Ширина : 1920 пикселей
Высота : 1040 пикселей
Соотношение сторон : 1,85:1
Режим частоты кадров : Постоянный
Частота кадров : 23,976 кадра/сек
Цветовое пространство : YUV
Субдискретизация насыщенности : 4:2:0
Битовая глубина : 8 бит
Тип развёртки : Прогрессивная
Бит/(Пиксели*Кадры) : 0.138
Размер потока : 3,91 Гбайт (90%)
Библиотека кодирования : x264 core 129 r2245 bc13772
Настройки программы : cabac=1 / ref=4 / deblock=1:0:0 / analyse=0x3:0x133 / me=umh / subme=10 / psy=1 / psy_rd=1.00:0.10 / mixed_ref=1 / me_range=32 / chroma_me=1 / trellis=2 / 8x8dct=1 / cqm=0 / deadzone=21,11 / fast_pskip=0 / chroma_qp_offset=-3 / threads=12 / lookahead_threads=2 / sliced_threads=0 / nr=0 / decimate=1 / interlaced=0 / bluray_compat=0 / constrained_intra=0 / bframes=3 / b_pyramid=2 / b_adapt=2 / b_bias=0 / direct=3 / weightb=1 / open_gop=0 / weightp=2 / keyint=240 / keyint_min=23 / scenecut=40 / intra_refresh=0 / rc_lookahead=66 / rc=2pass / mbtree=1 / bitrate=6615 / ratetol=1.0 / qcomp=0.68 / qpmin=0 / qpmax=69 / qpstep=4 / cplxblur=20.0 / qblur=0.5 / ip_ratio=1.40 / aq=1:1.00
Язык : English
Default : Да
Forced : Нет
Аудио #1
Идентификатор : 2
Формат : AC-3
Формат/Информация : Audio Coding 3
Расширение режима : CM (complete main)
Параметр Endianness формата : Big
Идентификатор кодека : A_AC3
Продолжительность : 1 ч. 26 м.
Вид битрейта : Постоянный
Битрейт : 192 Кбит/сек
Каналы : 2 канала
Расположение каналов : Front: L R
Частота : 48,0 КГц
Битовая глубина : 16 бит
Метод сжатия : С потерями
Размер потока : 119 Мбайт (3%)
Заголовок : Дубляж
Язык : Russian
Default : Да
Forced : Нет
Аудио #2
Идентификатор : 3
Формат : AC-3
Формат/Информация : Audio Coding 3
Расширение режима : CM (complete main)
Параметр Endianness формата : Big
Идентификатор кодека : A_AC3
Продолжительность : 1 ч. 26 м.
Вид битрейта : Постоянный
Битрейт : 384 Кбит/сек
Каналы : 6 каналов
Расположение каналов : Front: L C R, Side: L R, LFE
Частота : 48,0 КГц
Битовая глубина : 16 бит
Метод сжатия : С потерями
Размер потока : 238 Мбайт (5%)
Заголовок : Профессиональный (многоголосый, закадровый) 20th Century Fox
Язык : Russian
Default : Нет
Forced : Нет
Текст #1
Идентификатор : 4
Формат : UTF-8
Идентификатор кодека : S_TEXT/UTF8
Идентификатор кодека/Информация : UTF-8 Plain Text
Заголовок : RUS.MVO
Язык : Russian
Default : Да
Forced : Нет
Текст #2
Идентификатор : 5
Формат : UTF-8
Идентификатор кодека : S_TEXT/UTF8
Идентификатор кодека/Информация : UTF-8 Plain Text
Заголовок : ENG
Язык : English
Default : Нет
Forced : Нет
Меню
00:00:00.000 : en:01
00:03:46.583 : en:02
00:07:30.667 : en:03
00:12:49.208 : en:04
00:17:32.708 : en:05
00:22:53.958 : en:06
00:26:01.667 : en:07
00:34:38.542 : en:08
00:39:03.875 : en:09
00:42:38.042 : en:10
00:46:35.417 : en:11
00:49:58.583 : en:12
00:56:49.375 : en:13
01:01:58.833 : en:14
01:08:51.500 : en:15
01:11:53.125 : en:16
01:17:36.833 : en:17
01:19:01.167 : en:18

[Цитировать]



Показать сообщения:    

Текущее время: 05-Дек 13:26

Часовой пояс: UTC + 3


Вы не можете начинать темы
Вы не можете отвечать на сообщения
Вы не можете редактировать свои сообщения
Вы не можете удалять свои сообщения
Вы не можете голосовать в опросах
Вы не можете прикреплять файлы к сообщениям
Вы не можете скачивать файлы

!ВНИМАНИЕ!
Сайт не предоставляет электронные версии произведений, а занимается лишь коллекционированием и каталогизацией ссылок, присылаемых и публикуемых на форуме нашими читателями. Если вы являетесь правообладателем какого-либо представленного материала и не желаете, чтобы ссылка на него находилась в нашем каталоге, свяжитесь с нами, и мы незамедлительно удалим ее. Файлы для обмена на трекере предоставлены пользователями сайта, и администрация не несет ответственности за их содержание. Просьба не заливать файлы, защищенные авторскими правами, а также файлы нелегального содержания!