[ Сегодня идет свободное скачивание без начисления Download ]


Статистика раздачи
Нет
 
   
 
Top  
 
 
Полтергейст
Poltergeist

(Театральная версия / Theatrical Cut)
- Год выпуска: 2015
Страна: США, Канада (20th Century Fox, Metro-Goldwyn-Mayer, Ghost House Pictures, Vertigo Entertainment)
Жанр: Ужасы, Триллер
Продолжительность: 01:33:41
Перевод: Профессиональный дублированный - Лицензия
Режиссер: Гил Кинан / Gil Kenan-Роли исполняли (дублировали):

Eric Bowen - Сэм Рокуэлл (Артем Бордовский)
Amy Bowen - Розмари ДеУитт (Светлана Кузнецова)
Kendra Bowen - Саксон Шарбино (Ирина Обрезкова)
Griffin Bowen - Кайл Кэтлетт
Madison Bowen - Кеннеди Клементс
Carrigan Burke - Джаред Харрис (Станислав Концевич)
Dr. Brooke Powell - Джейн Адамс
Sophie - Сьюзэн Хэйард
Boyd - Николас Браун
Mrs. Stoller - Карен Ивани
Mr. Stoller - Патрик Гэрроу
-Описание: Когда страшные призраки забирают младшую дочь, семье приходится объединиться, чтобы спасти ее…-Премьера: 18 мая 2015 (18 июня 2015)
Бюджет: $35 000 000
Кассовые сборы: $95 635 531


-Качество: BDRip (by Ash61)
Контейнер: MKV
Формат 3D: Half OverUnder / Вертикальная анаморфная стереопара
Порядок ракурсов: левый ракурс первый-Видео: AVC / 23,976 fps / 1920х1080p / ~7.1 Mbps
Аудио:
#1 - Русский / AC3 / 48 KHz / 5.1 ch / 640 Kbps (Дубляж - BD CEE)
#2 - Украинский / AC3 / 48 KHz / 5.1 ch / 448 Kbps (Дубляж - BD CEE)
#3 - Английский / AC3 / 48 KHz / 5.1 ch / 640 Kbps (Original - BD 3D)
Субтитры (внешние SRT UTF-8):
#1 - Русские Полные (BD CEE)
#2 - Украинские Полные (BD CEE)
#3 - English SDH (BD 3D Eur)

MediaInfo

General
Unique ID : 186702649774614433135804498088162596028 (0x8C759F54EF0EF60EBEC5032857C594BC)
Complete name : E:Poltergeist(2015)3D-halfOU(Ash61)Poltergeist(2015)3D-halfOU(Ash61).mkv
Format : Matroska
Format version : Version 2
File size : 5.88 GiB
Duration : 1h 33mn
Overall bit rate : 8 983 Kbps
Movie name : Полтергейст / Poltergeist (2015) в 3Д
Encoded date : UTC 2015-09-19 20:03:46
Writing application : mkvmerge v5.8.0 ('No Sleep / Pillow') built on Sep 2 2012 15:37:04
Writing library : libebml v1.2.3 + libmatroska v1.3.0
Video
ID : 1
Format : AVC
Format/Info : Advanced Video Codec
Format profile : [email protected]
Format settings, CABAC : Yes
Format settings, ReFrames : 4 frames
Codec ID : V_MPEG4/ISO/AVC
Duration : 1h 33mn
Bit rate : 7 076 Kbps
Width : 1 920 pixels
Height : 1 080 pixels
Display aspect ratio : 16:9
Frame rate mode : Constant
Frame rate : 23.976 fps
Color space : YUV
Chroma subsampling : 4:2:0
Bit depth : 8 bits
Scan type : Progressive
Bits/(Pixel*Frame) : 0.142
Stream size : 4.63 GiB (79%)
Title : BDRip by Ash61
Writing library : x264 core 146 r2538 121396c
Encoding settings : cabac=1 / ref=4 / deblock=1:-3:-3 / analyse=0x3:0x113 / me=umh / subme=10 / psy=1 / psy_rd=1.00:0.00 / mixed_ref=1 / me_range=32 / chroma_me=1 / trellis=2 / 8x8dct=1 / cqm=0 / deadzone=21,11 / fast_pskip=1 / chroma_qp_offset=-2 / threads=12 / lookahead_threads=3 / sliced_threads=0 / nr=0 / decimate=1 / interlaced=0 / bluray_compat=0 / constrained_intra=0 / bframes=11 / b_pyramid=2 / b_adapt=2 / b_bias=0 / direct=3 / weightb=1 / open_gop=0 / weightp=2 / keyint=250 / keyint_min=23 / scenecut=40 / intra_refresh=0 / rc_lookahead=60 / rc=crf / mbtree=1 / crf=16.5 / qcomp=0.70 / qpmin=0 / qpmax=69 / qpstep=4 / vbv_maxrate=40000 / vbv_bufsize=30000 / crf_max=0.0 / nal_hrd=none / filler=0 / frame-packing=4 / ip_ratio=1.40 / aq=1:0.70
Language : English
Default : Yes
Forced : No
Audio #1
ID : 2
Format : AC-3
Format/Info : Audio Coding 3
Mode extension : CM (complete main)
Format settings, Endianness : Big
Codec ID : A_AC3
Duration : 1h 33mn
Bit rate mode : Constant
Bit rate : 640 Kbps
Channel(s) : 6 channels
Channel positions : Front: L C R, Side: L R, LFE
Sampling rate : 48.0 KHz
Bit depth : 16 bits
Compression mode : Lossy
Stream size : 429 MiB (7%)
Title : Дубляж - BD CEE
Language : Russian
Default : Yes
Forced : No
Audio #2
ID : 3
Format : AC-3
Format/Info : Audio Coding 3
Mode extension : CM (complete main)
Format settings, Endianness : Big
Codec ID : A_AC3
Duration : 1h 33mn
Bit rate mode : Constant
Bit rate : 448 Kbps
Channel(s) : 6 channels
Channel positions : Front: L C R, Side: L R, LFE
Sampling rate : 48.0 KHz
Bit depth : 16 bits
Compression mode : Lossy
Stream size : 300 MiB (5%)
Title : Дубляж - BD CEE
Language : Ukrainian
Default : No
Forced : No
Audio #3
ID : 4
Format : AC-3
Format/Info : Audio Coding 3
Mode extension : CM (complete main)
Format settings, Endianness : Big
Codec ID : A_AC3
Duration : 1h 33mn
Bit rate mode : Constant
Bit rate : 640 Kbps
Channel(s) : 6 channels
Channel positions : Front: L C R, Side: L R, LFE
Sampling rate : 48.0 KHz
Bit depth : 16 bits
Compression mode : Lossy
Stream size : 429 MiB (7%)
Title : Original - BD 3D Eur
Language : English
Default : No
Forced : No
Menu
00:00:00.000 : :1
00:04:57.339 : :2
00:07:30.533 : :3
00:11:23.224 : :4
00:15:28.511 : :5
00:17:31.008 : :6
00:21:27.786 : :7
00:24:58.664 : :8
00:28:59.529 : :9
00:31:19.252 : :10
00:35:33.214 : :11
00:40:14.621 : :12
00:43:16.135 : :13
00:47:00.651 : :14
00:53:27.996 : :15
00:57:47.839 : :16
01:00:02.015 : :17
01:02:35.919 : :18
01:05:33.680 : :19
01:09:02.513 : :20
01:12:32.890 : :21
01:18:19.403 : :22
01:22:52.885 : :23
01:27:49.681 : :24

Для оценки 3Д - Анимированные скрины















О методах просмотра 3D--

[Цитировать]



Показать сообщения:    

Текущее время: 04-Дек 13:19

Часовой пояс: UTC + 3


Вы не можете начинать темы
Вы не можете отвечать на сообщения
Вы не можете редактировать свои сообщения
Вы не можете удалять свои сообщения
Вы не можете голосовать в опросах
Вы не можете прикреплять файлы к сообщениям
Вы не можете скачивать файлы

!ВНИМАНИЕ!
Сайт не предоставляет электронные версии произведений, а занимается лишь коллекционированием и каталогизацией ссылок, присылаемых и публикуемых на форуме нашими читателями. Если вы являетесь правообладателем какого-либо представленного материала и не желаете, чтобы ссылка на него находилась в нашем каталоге, свяжитесь с нами, и мы незамедлительно удалим ее. Файлы для обмена на трекере предоставлены пользователями сайта, и администрация не несет ответственности за их содержание. Просьба не заливать файлы, защищенные авторскими правами, а также файлы нелегального содержания!