[ Сегодня идет свободное скачивание без начисления Download ]


Статистика раздачи
Нет
 
   
 
Top  
 
 
Каедес. Резня на поляне смерти / Caedes (2015) HDRip-AVC Информация о фильме
Название: Каедес. Резня на поляне смерти
Оригинальное название: Caedes
Год выпуска: 2015
Жанр: Ужасы, комедия
Режиссер: Славко Шпионджек
В ролях: Бернхард Боциан, Лена Бадер, Макс Майр, Ивана Бабич, Томи Бабич, Эвальд Дер, Джейкоб Филипп Граф, Макс Леонхард, Тобиаш Лихт
О фильме:] Дэн и его трое друзей отправляются на весёлый фестиваль на лесной полянке. После дикой пьяной ночи наступает похмельное пробуждение! Начинается кровавая вакханалия. Молодая туристка загрызает людей голыми зубами. Испуганные люди пытаются найти убежище в лесу... И там их ожидает абсолютное зло!

Выпущено: Германия, UE Spionjak Films
Продолжительность: 01:28:32
Озвучивание: Авторский одноголосый (Ворон)
Файл
Качество: HDRip (AVC)
Видео: MPEG-4 AVC, 1635 Кбит/с, 1024x438
Аудио: Русский (AC3, 2 ch, 256 Кбит/с), немецкий (AC3, 6 ch, 384 Кбит/с)

MI

General
Unique ID : 213891629931960647558050749089273025964 (0xA0EA078CEACCB7B3802B53FC592315AC)
Complete name : C:Caedes.2014.Voron.HDRip.AVC.ExKinoRay.mkv
Format : Matroska
Format version : Version 4 / Version 2
File size : 1.41 GiB
Duration : 1h 28mn
Overall bit rate : 2 272 Kbps
Movie name : Caedes 2014 from ExKinoRay
Encoded date : UTC 2015-11-10 02:11:54
Writing application : mkvmerge v6.6.0 ('The Edge Of The In Between') built on Dec 1 2013 17:55:00
Writing library : libebml v1.3.0 + libmatroska v1.4.1
Video
ID : 1
Format : AVC
Format/Info : Advanced Video Codec
Format profile : High@L4.1
Format settings, CABAC : Yes
Format settings, ReFrames : 10 frames
Codec ID : V_MPEG4/ISO/AVC
Duration : 1h 28mn
Bit rate : 1 635 Kbps
Width : 1 024 pixels
Height : 438 pixels
Display aspect ratio : 2.35:1
Frame rate mode : Constant
Frame rate : 25.000 fps
Color space : YUV
Chroma subsampling : 4:2:0
Bit depth : 8 bits
Scan type : Progressive
Bits/(Pixel*Frame) : 0.146
Stream size : 1 007 MiB (70%)
Title : Enigma
Writing library : x264 core 133 r2334 a3ac64b
Encoding settings : cabac=1 / ref=10 / deblock=1:-2:-2 / analyse=0x3:0x113 / me=umh / subme=10 / psy=1 / psy_rd=1.05:0.15 / mixed_ref=1 / me_range=32 / chroma_me=1 / trellis=2 / 8x8dct=1 / cqm=0 / deadzone=21,11 / fast_pskip=0 / chroma_qp_offset=-3 / threads=12 / lookahead_threads=2 / sliced_threads=0 / nr=0 / decimate=0 / interlaced=0 / bluray_compat=0 / constrained_intra=0 / bframes=9 / b_pyramid=2 / b_adapt=2 / b_bias=0 / direct=3 / weightb=1 / open_gop=0 / weightp=2 / keyint=250 / keyint_min=25 / scenecut=40 / intra_refresh=0 / rc_lookahead=40 / rc=2pass / mbtree=0 / bitrate=1635 / ratetol=1.0 / qcomp=0.60 / qpmin=0 / qpmax=51 / qpstep=4 / cplxblur=20.0 / qblur=0.5 / vbv_maxrate=50000 / vbv_bufsize=62500 / nal_hrd=none / ip_ratio=1.40 / pb_ratio=1.30 / aq=1:1.00
Language : English
Default : Yes
Forced : No
Color primaries : BT.709
Transfer characteristics : BT.709
Matrix coefficients : BT.709
Audio #1
ID : 2
Format : AC-3
Format/Info : Audio Coding 3
Format profile : Dolby Digital
Mode extension : CM (complete main)
Format settings, Endianness : Big
Codec ID : A_AC3
Duration : 1h 28mn
Bit rate mode : Constant
Bit rate : 256 Kbps
Channel(s) : 2 channels
Channel positions : Front: L R
Sampling rate : 48.0 KHz
Bit depth : 16 bits
Compression mode : Lossy
Stream size : 162 MiB (11%)
Title : AVO (Voron)
Language : Russian
Default : Yes
Forced : No
Audio #2
ID : 3
Format : AC-3
Format/Info : Audio Coding 3
Mode extension : CM (complete main)
Format settings, Endianness : Big
Codec ID : A_AC3
Duration : 1h 28mn
Bit rate mode : Constant
Bit rate : 384 Kbps
Channel(s) : 6 channels
Channel positions : Front: L C R, Side: L R, LFE
Sampling rate : 48.0 KHz
Bit depth : 16 bits
Compression mode : Lossy
Stream size : 244 MiB (17%)
Language : German
Default : No
Forced : No
Menu
00:00:00.000 : en:00:00:00.000
00:05:41.640 : en:00:05:41.640
00:09:59.760 : en:00:09:59.760
00:17:05.000 : en:00:17:05.000
00:25:58.200 : en:00:25:58.200
00:33:31.000 : en:00:33:31.000
00:44:33.000 : en:00:44:33.000
00:49:52.160 : en:00:49:52.160
00:59:21.800 : en:00:59:21.800
01:11:13.400 : en:01:11:13.400
01:18:25.000 : en:01:18:25.000
01:26:05.040 : en:01:26:05.040

Скриншоты

[Цитировать]

Топик был перенесен из форума Новинки кинопроката в форум Ужасы
Henkok



Показать сообщения:    

Текущее время: 24-Апр 15:30

Часовой пояс: UTC + 6


Вы не можете начинать темы
Вы не можете отвечать на сообщения
Вы не можете редактировать свои сообщения
Вы не можете удалять свои сообщения
Вы не можете голосовать в опросах
Вы не можете прикреплять файлы к сообщениям
Вы не можете скачивать файлы

!ВНИМАНИЕ!
Сайт не предоставляет электронные версии произведений, а занимается лишь коллекционированием и каталогизацией ссылок, присылаемых и публикуемых на форуме нашими читателями. Если вы являетесь правообладателем какого-либо представленного материала и не желаете, чтобы ссылка на него находилась в нашем каталоге, свяжитесь с нами, и мы незамедлительно удалим ее. Файлы для обмена на трекере предоставлены пользователями сайта, и администрация не несет ответственности за их содержание. Просьба не заливать файлы, защищенные авторскими правами, а также файлы нелегального содержания!