[ Сегодня идет свободное скачивание без начисления Download ]


Статистика раздачи
Нет
 
   
 
Top  
 
 
Он ушел в воскресенье / Un beau dimanche (2013) DVDRip Информация о фильме
Название: Он ушел в воскресенье
Оригинальное название: Un beau dimanche
Год выхода: 2013
Жанр: драма
Режиссер: Николь Гарсия
В ролях: Пьер Рошфор, Луиз Бургуан, Доминик Санда, Дебора Франсуа, Эрик Руф, Бенжамин Лаверн, Mathias Brezot, Оливье Лусто, Vanessa Liautey, Жан-Пьер Мартен
Описание: Батист работает учителем в школе на юге Франции. Однажды накануне выходных одного из его учеников, Матиаса, забывает забрать из школы его отец. Теперь Батисту приходится самостоятельно отвозить Матиаса к его матери Сандре, работающей на пляже в городке неподалёку. Очарованный красотой Сандры, Батист, узнавший о тяжёлом финансовом положении женщины, решает помочь ей. Но для этого ему придётся вновь вернуться к той жизни, которую он надеялся навсегда оставить в прошлом…

Страна: Франция
Продолжительность: 01:31:36
Перевод:
Профессиональный (многоголосый закадровый) - 1 канал
Файл
Формат: AVI
Качество: DVDRip
Видео: 720x384, (1,85:1), XviD, 1633 Кбит/сек, 25,000 кадров/сек
Аудио №1: AC3, 192 Кбит/сек, 2 канала, 48,0 КГц - 1 канал
Аудио №2: AC3, 448 Кбит/сек, 6 каналов, 48,0 КГц - Оригинал (французский)

Скриншоты:

MediaInfo:

Общее
Полное имя : K:Он ушел в воскресенье.avi
Формат : AVI
Формат/Информация : Audio Video Interleave
Размер файла : 1,46 Гбайт
Продолжительность : 1 ч. 31 м.
Общий поток : 2287 Кбит/сек
Название фильма : Он ушел в воскресенье / Un beau dimanche (2013)
Программа кодирования : VirtualDubMod 1.5.10.2 (build 2540/release)
Библиотека кодирования : VirtualDubMod build 2540/release
Авторское право : miha2154
Видео
Идентификатор : 0
Формат : MPEG-4 Visual
Профиль формата : Advanced Simple@L5
Параметр BVOP формата : 1
Параметр QPel формата : Нет
Параметр GMC формата : Без точки перехода
Параметр матрицы формата : Выборочная
Идентификатор кодека : XVID
Идентификатор кодека/Подсказка : XviD
Продолжительность : 1 ч. 31 м.
Битрейт : 1633 Кбит/сек
Ширина : 720 пикселей
Высота : 384 пикселя
Соотношение сторон : 1,85:1
Частота кадров : 25,000 кадров/сек
Цветовое пространство : YUV
Субдискретизация насыщенности : 4:2:0
Битовая глубина : 8 бит
Тип развёртки : Прогрессивная
Метод сжатия : С потерями
Бит/(Пиксели*Кадры) : 0.236
Размер потока : 1,04 Гбайт (71%)
Библиотека кодирования : XviD 65
Аудио #1
Идентификатор : 1
Формат : AC-3
Формат/Информация : Audio Coding 3
Расширение режима : CM (complete main)
Параметр Endianness формата : Big
Идентификатор кодека : 2000
Продолжительность : 1 ч. 31 м.
Вид битрейта : Постоянный
Битрейт : 192 Кбит/сек
Каналы : 2 канала
Расположение каналов : Front: L R
Частота : 48,0 КГц
Метод сжатия : С потерями
Размер потока : 126 Мбайт (8%)
Выравнивание : Разделение по промежуткам
Продолжительность промежутка : 40 мс. (1,00 видеокадр)
Время предзагрузки промежутка : 500 мс.
Заголовок : Профессиональный (многоголосый закадровый) 1 канал
Аудио #2
Идентификатор : 2
Формат : AC-3
Формат/Информация : Audio Coding 3
Расширение режима : CM (complete main)
Параметр Endianness формата : Big
Идентификатор кодека : 2000
Продолжительность : 1 ч. 31 м.
Вид битрейта : Постоянный
Битрейт : 448 Кбит/сек
Каналы : 6 каналов
Расположение каналов : Front: L C R, Side: L R, LFE
Частота : 48,0 КГц
Метод сжатия : С потерями
Размер потока : 294 Мбайт (20%)
Выравнивание : Разделение по промежуткам
Продолжительность промежутка : 40 мс. (1,00 видеокадр)
Время предзагрузки промежутка : 500 мс.
Заголовок : Французский

[Цитировать]



Показать сообщения:    

Текущее время: 10-Дек 04:05

Часовой пояс: UTC + 3


Вы не можете начинать темы
Вы не можете отвечать на сообщения
Вы не можете редактировать свои сообщения
Вы не можете удалять свои сообщения
Вы не можете голосовать в опросах
Вы не можете прикреплять файлы к сообщениям
Вы не можете скачивать файлы

!ВНИМАНИЕ!
Сайт не предоставляет электронные версии произведений, а занимается лишь коллекционированием и каталогизацией ссылок, присылаемых и публикуемых на форуме нашими читателями. Если вы являетесь правообладателем какого-либо представленного материала и не желаете, чтобы ссылка на него находилась в нашем каталоге, свяжитесь с нами, и мы незамедлительно удалим ее. Файлы для обмена на трекере предоставлены пользователями сайта, и администрация не несет ответственности за их содержание. Просьба не заливать файлы, защищенные авторскими правами, а также файлы нелегального содержания!