[ Сегодня идет свободное скачивание без начисления Download ]


Статистика раздачи
Скачал: [ 2 ]
 
   
 
Top  
 
 
AutoIt Guide RUS | Основы программирования на AutoIT (2013) WEBRip - Автор (режиссер): AutoIt Guide RUS
Жанр: Программирование
Продолжительность: 00:52:20
Качество видео: WEBRip
Видео: AVC/H.264, 1154x720, ~658 kbps
Аудио: AAC, 2 ch, 192 kbps
Описание:
Каждому человеку, когда-нибудь, приходилось совершать однотипные и монотонные действия на компьютере. Естественно, такая работа не может доставлять удовольствия. А как на счет того, что бы сам компьютер за нас поработал?
В настоящее время это вполне возможно. Нужно только иметь функциональный инструмент и хоть немного желания научится с ним работать.
Таким инструментом является AutoIt Script.
AutoIt — свободно распространяемый язык для автоматизации выполнения задач в операционных системах семейства Microsoft Windows.
Ранние версии языка преимущественно использовались для таких задач как, инсталляция идентичных наборов программ на большое количество компьютеров. В более поздних версиях , с улучшением функциональности, AutoIt стал похож на языки общего назначения, такие как C, C++, Perl и т.д.

Mediainfo:

General
Полное имя                       : E:\Torrents\Основы AutoIT\Урок 0.1- Введение.mp4
Формат                           : MPEG-4
Профиль формата                  : Base Media / Version 2
Идентификатор кодека             : mp42
Размер файла                     : 19.1 MiB
Продолжительность                : 3mn 7s
Общий поток                      : 853 Kbps
Дата кодирования                 : UTC 2014-06-20 21:22:49
Дата пометки                     : UTC 2014-06-20 21:22:49
gsst                             : 0
gstd                             : 187406
gssd                             : B4A7DDA25MH1426529074711225
gshh                             : r5---sn-4g57kuel.googlevideo.com
Video
Идентификатор                    : 1
Формат                           : AVC
Формат/Информация                : Advanced Video Codec
Профиль формата                  : [email protected]
Параметр CABAC формата           : Yes
Параметр ReFrames формата        : 1 frame
Идентификатор кодека             : avc1
Идентификатор кодека/Информация  : Advanced Video Coding
Продолжительность                : 3mn 7s
Битрейт                          : 658 Kbps
Максимальный битрейт             : 6 818 Kbps
Ширина                           : 1 154 pixels
Высота                           : 720 pixels
Соотношение сторон               : 1.603
Режим частоты кадров             : Constant
Частота кадров                   : 30.000 fps
Цветовое пространство            : YUV
Подвыборка цветности             : 4:2:0
Битовая глубина                  : 8 bits
Тип развёртки                    : Progressive
Бит/(Пиксели*Кадры)              : 0.026
Размер потока                    : 14.7 MiB (77%)
Дата пометки                     : UTC 2014-06-20 21:22:51
Audio
Идентификатор                    : 2
Формат                           : AAC
Формат/Информация                : Advanced Audio Codec
Профиль формата                  : LC
Идентификатор кодека             : 40
Продолжительность                : 3mn 7s
Вид битрейта                     : Variable
Битрейт                          : 192 Kbps
Максимальный битрейт             : 201 Kbps
Каналы                           : 2 channels
Расположение каналов             : Front: L R
Частота                          : 44.1 KHz
Метод сжатия                     : Lossy
Размер потока                    : 4.29 MiB (23%)
Заголовок                        : IsoMedia File Produced by Google, 5-11-2011
Дата кодирования                 : UTC 2014-06-20 21:22:50
Дата пометки                     : UTC 2014-06-20 21:22:51

Содержание:

Урок 0.1- Введение
Урок 0.2- Скачивание и установка.
Урок 1- Скрипт HelloWorld.
Урок 2- Автоматизация Notepad.
Урок 3- Переменные, Массивы.
Урок 4- Условные выражения.
Урок 5- Циклы.
Урок 6- Функции.
Урок 7- Работа с файлами.
Скриншоты:

[Цитировать]



Показать сообщения:    

Текущее время: 04-Дек 13:21

Часовой пояс: UTC + 3


Вы не можете начинать темы
Вы не можете отвечать на сообщения
Вы не можете редактировать свои сообщения
Вы не можете удалять свои сообщения
Вы не можете голосовать в опросах
Вы не можете прикреплять файлы к сообщениям
Вы не можете скачивать файлы

!ВНИМАНИЕ!
Сайт не предоставляет электронные версии произведений, а занимается лишь коллекционированием и каталогизацией ссылок, присылаемых и публикуемых на форуме нашими читателями. Если вы являетесь правообладателем какого-либо представленного материала и не желаете, чтобы ссылка на него находилась в нашем каталоге, свяжитесь с нами, и мы незамедлительно удалим ее. Файлы для обмена на трекере предоставлены пользователями сайта, и администрация не несет ответственности за их содержание. Просьба не заливать файлы, защищенные авторскими правами, а также файлы нелегального содержания!