[ Сегодня идет свободное скачивание без начисления Download ]


Статистика раздачи
Нет
 
   
 
Top  
 
 

Информация о фильме
Оригинальное название: Универ. Новая общага
Год выхода: 2015
Жанр: Комедия, ситком
Режиссёр: Константин Смирнов, Максим Зыков, Тимофей Шоталов, Рустам Мосафир
В ролях: Станислав Ярушин, Арарат Кещян, Александр Стекольников, Настасья Самбурская, Анна Кузина, Анна Хилькевич, Елена Валюшкина, Константин Шелягин, Андрей Лебедев, Сергей Пиоро и др.
О фильме: Антон и Кристина переезжают в своё собственное любовное гнёздышко. Вот только оказывается, что свить его не так-то просто, даже если все расходы берёт на себя папа-олигарх Лев Андреевич. Майкл, как ни странно, продолжает встречаться с Варей. Всё бы ничего, но теперь, когда Зуев знает об их отношениях, Майклу приходится общаться с начальником не только по рабочим вопросам, но и по домашним. Как бы ни старались Маша с Валей жить спокойной студенческой жизнью, радуясь своему странному союзу, – ничего у них не выходит. Маша постоянно переживает за любимого и всячески пытается ему помочь. Яна Семакина вместе с Иванычем все сбережения будут вкладывать в свою «ласточку». Прекрасное «ведёрко на колёсиках» работает по схеме «5-1»: пять часов чинишь, час катаешься. Что касается отношений, то пара становится всё более цельной – с общим видением жизни и увлечениями. Об этом и о многом другом вы узнаете в новом сезоне...

Выпущено: Россия, ТНТ, "Комеди Клаб Продакшн"
Продолжительность: ~ 00:24:00 / Серия
Перевод: Не требуется
Файл
Кодек: XviD
Качество: WEB-DLRip [Исходник: WEB-DL 720p]
Видео: XviD, 704x400 (16:9), ~ 1830 Кбит/с, 25 кадр/с
Аудио: Русский, MP3, 48000 Гц, 128 Кбит/с, 2 канала (Стерео)

Раздача ведётся путём добавления новых серий

Внимание! Раздача ведётся путём добавления новых серий; при каждом добавлении создётся новый торрент. Чтобы начать докачку новой серии, пользователям необходимо сделать следующее:
1. Остановить скачивание.
2. Удалить старый торрент у себя из клиента (старые серии удалять не надо).
3. Скачать новый торрент и запустить его у себя в клиенте вместо старого, при этом указать клиенту путь в старую папку куда и должно происходить скачивание новых серий.
Ваш клиент при этом должен произвести хеширование (проверку) старой папки (если не производит сам - помогите ему сделать это), и будет докачивать только те серии которых у вас ещё нет. Старые серии при этом не удаляются, а продолжают раздаваться!
Eсли вы уже удалили старые серии, то предотвратить повторную закачку старых серий можно, отжав галочку в соответсвующих местах при запуске нового торрента. По возможности, желательно не удалять старые серии как можно дольше чтобы релизёр не столько продолжал раздавать старые серии, а смог сконцентрироваться на новых.

Краткое содержание серий

01 серия
Маша решает признаться маме Вали, что они встречаются. Антону и Кристине надоело, что их личная жизнь зависит от расписания ребят в блоке. Они решают, что пора жить отдельно. Яна узнает, что Иванов уже неделю берет у нее деньги на ремонт деталей, которых в машине даже не существует.
02 серия
У Вали на работе скандал - обнаружена недостача в тысячу рублей. Придя домой, он обнаруживает, что тысяча прилипла к его подошве. Варя замечает за Майклом странную особенность – он молчит во время секса. Антон и Кристина выбирают квартиру. Он – в пределах Садового, она – около МКАДа.
03 серия
Жена Зуева уехала в отпуск, и на плечи Майкла и Вари ложится забота об абсолютно беспомощном в быту ректоре. Валя уверен – после того, как он выбрал Машу, мама его никогда не простит. Маша не может смотреть на страдания своего парня, и едет в Саратов, чтобы их помирить.
04 серия
Маша замечает, что с тех пор, как Валя начал работать в «Фаст-чикене», от него постоянно пахнет курицей. Валя оригинально решает проблему. Антон и Кристина пытаются найти риэлтора, который попытается найти им квартиру. Машина Яны традиционно сломалась. Иванов предлагает сэкономить и починить ее самостоятельно.
05 серия
К Яне приезжают родители, и она ни в какую не хочет знакомить их с Ивановым. Но она стесняется не Иванова, а своего папу. Майкл торопится на матч Лиги Чемпионов, и решает соврать Зуеву, что едет помогать Варе. Варе же он говорит, что остался помогать ее папе. Вопрос, кто первый его раскроет.
06 серия
Иванов дарит Яне подарок в честь романтичной даты – месяц с их первого поцелуя. Яна же совершенно забыла об этом событии. Коменда записалась на курсы мейкапа, а Маша вкалывает под руководством тирана Вали.
07 серия
Яне надоело делить Иваныча с Киселем, и она решает найти последнему девушку. Майкл обвиняет студентов в краже его телефона, а потом находит его дома. Кристина решает записать для Антона эротическое видео.
08 серия
Антон, опасаясь банковского кризиса, снимает деньги, которые отец дал им на квартиру. Теперь надо понять, куда девать пакет, набитый купюрами. Варя готовит Майклу ужин. Жаль только, что есть ее стряпню невозможно.
09 серия
Маша идет на собеседование в глянцевый журнал, но оказывается в длинной очереди соискателей. Майкл случайно обзавелся новым дядей. А Антон с Кристиной выигрывают миллион рублей в лотерею.

MediaInfo

General
Complete name : Univer.Novaya.obschaga.s08.e01.WEB-DLRip.avi
Format : AVI
Format/Info : Audio Video Interleave
File size : 349 MiB
Duration : 24mn 30s
Overall bit rate : 1 992 Kbps
Writing application : VirtualDubMod 1.5.10.3 (build 2550/release)
Writing library : VirtualDubMod build 2550/release
Copyright : rip by ivandubskoj
Video
ID : 0
Format : MPEG-4 Visual
Format profile : Advanced [email protected]
Format settings, BVOP : 1
Format settings, QPel : No
Format settings, GMC : No warppoints
Format settings, Matrix : Custom
Codec ID : XVID
Codec ID/Hint : XviD
Duration : 24mn 30s
Bit rate : 1 854 Kbps
Width : 704 pixels
Height : 400 pixels
Display aspect ratio : 16:9
Frame rate : 25.000 fps
Color space : YUV
Chroma subsampling : 4:2:0
Bit depth : 8 bits
Scan type : Progressive
Compression mode : Lossy
Bits/(Pixel*Frame) : 0.263
Stream size : 325 MiB (93%)
Writing library : XviD 73
Audio
ID : 1
Format : MPEG Audio
Format version : Version 1
Format profile : Layer 3
Codec ID : 55
Codec ID/Hint : MP3
Duration : 24mn 30s
Bit rate mode : Constant
Bit rate : 128 Kbps
Channel(s) : 2 channels
Sampling rate : 48.0 KHz
Compression mode : Lossy
Stream size : 22.4 MiB (6%)
Alignment : Aligned on interleaves
Interleave, duration : 40 ms (1.00 video frame)
Interleave, preload duration : 504 ms
Writing library : LAME3.99r
Encoding settings : -m s -V 4 -q 0 -lowpass 17 -b 128

Скриншоты

Автор рипа - ivandubskoj

[Цитировать]



Показать сообщения:    

Текущее время: 05-Дек 17:35

Часовой пояс: UTC + 3


Вы не можете начинать темы
Вы не можете отвечать на сообщения
Вы не можете редактировать свои сообщения
Вы не можете удалять свои сообщения
Вы не можете голосовать в опросах
Вы не можете прикреплять файлы к сообщениям
Вы не можете скачивать файлы

!ВНИМАНИЕ!
Сайт не предоставляет электронные версии произведений, а занимается лишь коллекционированием и каталогизацией ссылок, присылаемых и публикуемых на форуме нашими читателями. Если вы являетесь правообладателем какого-либо представленного материала и не желаете, чтобы ссылка на него находилась в нашем каталоге, свяжитесь с нами, и мы незамедлительно удалим ее. Файлы для обмена на трекере предоставлены пользователями сайта, и администрация не несет ответственности за их содержание. Просьба не заливать файлы, защищенные авторскими правами, а также файлы нелегального содержания!