[ Сегодня идет свободное скачивание без начисления Download ]


Статистика раздачи
Нет
 
   
 
Top  
 
 
-Головоломка
Inside Out
- Год выпуска: 2015
Страна: США
Жанр: Мультфильм, Семейный, Комедия
Продолжительность: 01:34:51
Перевод: Профессиональный дублированный - iTunes
Режиссёры: Пит Доктер, Роналдо Дель Кармен / Pete Docter, Ronnie Del Carmen-Роли озвучивали (дублировали):
Радость - Эми Полер (Натали)
Печаль - Филлис Смит (Олеся Железняк)
Bing Bong - Ричард Кайнд (Максим Виторган)
Страх - Билл Хейдер (Владимир Епифанцев)
Гнев - Льюис Блэк (Дмитрий Нагиев)
Брезгливость - Минди Кейлинг (Ксения Собчак)
Riley - Кейтлин Диас (Ангелина Грязева)
Мама - Дайан Лэйн (Татьяна Шитова)
Папа - Кайл МакЛоклен (Денис Некрасов)
Forgetter Paula - Пола Паундстон (Елена Шульман)
Forgetter Bobby - Бобби Мойнахан (Алексей Войтюк)
-Описание: Райли — обычная 11-летняя школьница, и, как у каждого из нас, ее поведение определяют пять базовых эмоций: Радость, Печаль, Страх, Гнев и Брезгливость. Эмоции живут в сознании девочки и каждый день помогают ей справляться с проблемами, руководя всеми ее поступками. До поры до времени эмоции живут дружно, но вдруг оказывается, что Райли и ее родителям предстоит переезд из небольшого уютного городка в шумный и людный мегаполис. Каждая из эмоций считает, что именно она лучше прочих знает, что нужно делать в этой непростой ситуации, и в голове у девочки наступает полная неразбериха. Чтобы наладить жизнь в большом городе, освоиться в новой школе и подружиться с одноклассниками, эмоциям Райли предстоит снова научиться работать сообща.

Знаете ли вы, что...

В мультфильме обыгрывается одна из аксиом психологии: игнорирование отдельных эмоций, какими бы негативными или бесполезными они ни казались, ведёт к стрессу и депрессии.
Авторы мультфильма выделили 5 самых основных эмоций, чтобы сделать их характеры более четкими и яркими. Так, например, Радость «поглотила» такие эмоции, как гордость и доверие.
По словам Пита Доктера, каждая эмоция была основана на определенном визуальном образе: Радость — на звездочке, Печаль — на слезе, Гнев — на огненном кирпиче, Страх — на натянутом нерве, Брезгливость — на брокколи (несмотря на то что, по признанию Пита, он сам очень любит брокколи).
Идея «Головоломки» пришла к режиссеру Питу Доктеру после того, как его собственная дочь прошла через трудный подростковый период.
Внимание, следующие факты содержат спойлеры!Когда семья Райли переезжает в новый дом, на проводах можно заметить воробьев из мультфильма «О птичках» (2000) студии «Pixar».
В первом сне Райли фигурирует говорящая крыса (здесь — мышь) Реми из «Рататуя» (2007). Также в мультфильме появлялись два объекта из мультфильма «ВАЛЛ·И» (2008) — огнетушитель (им Радость тушила подпалённого Гневом Страха) и рваный ботинок (он был в мешке Бинго-Бонго). Одно из воспоминаний Райли — фотография на фоне статуи динозавра в пустыне по дороге в Сан-Франциско. Этот динозавр, скорее всего, — один из героев следующего мультфильма «Хороший динозавр» (2015).
Премьера: 18 мая 2015 (18 июня 2015)
Релиз на Blu-Ray (DVD) (Россия): 3 ноября 2015
Бюджет: $175 000 000
Кассовые сборы: $831 645 000
Топ 250 Кинопоиска: #89 (19.10.2015)
Top 250 IMDb: #65 (19.10.2015)



За исходный BD 3D Remux спасибо и Анониму!
-Качество: BDRip (by Ash61)
Контейнер: MKV
Формат 3D: Half OverUnder / Вертикальная анаморфная стереопара
Порядок ракурсов: левый ракурс первый-Видео: AVC / 23,976 fps / 1920х1080p / 10.1 Mbps
Аудио:
#1 - Русский / AC3 / 48 KHz / 5.1 ch / 384 Kbps (Дубляж - iTunes)
#2 - Украинский / AC3 / 48 KHz / 5.1 ch / 384 Kbps (Дубляж - hurtom)
#3 - Английский / AC3 / 48 KHz / 5.1 ch / 640 Kbps (Original - BD 3D)
Субтитры (внешние SRT UTF-8):
#1 - Русские Полные
#2 - English Full

MediaInfo

General
Unique ID : 173611355512177949349427150670148164546 (0x829C54B10E44D05984A0A95403345BC2)
Complete name : E:InsideOut(2015)3D-halfOU(Ash61)iTunesInsideOut(2015)3D-halfOU(Ash61)iTunes.mkv
Format : Matroska
Format version : Version 2
File size : 7.75 GiB
Duration : 1h 34mn
Overall bit rate : 11.7 Mbps
Movie name : Головоломка / Inside Out (2015) в 3Д
Encoded date : UTC 2015-10-20 15:02:23
Writing application : mkvmerge v5.8.0 ('No Sleep / Pillow') built on Sep 2 2012 15:37:04
Writing library : libebml v1.2.3 + libmatroska v1.3.0
Video
ID : 1
Format : AVC
Format/Info : Advanced Video Codec
Format profile : High@L4.1
Format settings, CABAC : Yes
Format settings, ReFrames : 4 frames
Codec ID : V_MPEG4/ISO/AVC
Duration : 1h 34mn
Bit rate : 10.1 Mbps
Width : 1 920 pixels
Height : 1 080 pixels
Display aspect ratio : 16:9
Frame rate mode : Constant
Frame rate : 23.976 fps
Color space : YUV
Chroma subsampling : 4:2:0
Bit depth : 8 bits
Scan type : Progressive
Bits/(Pixel*Frame) : 0.202
Stream size : 6.66 GiB (86%)
Title : BDRip by Ash61
Writing library : x264 core 146 r2538 121396c
Encoding settings : cabac=1 / ref=4 / deblock=1:-3:-3 / analyse=0x3:0x113 / me=umh / subme=10 / psy=1 / psy_rd=1.00:0.00 / mixed_ref=1 / me_range=32 / chroma_me=1 / trellis=2 / 8x8dct=1 / cqm=0 / deadzone=21,11 / fast_pskip=1 / chroma_qp_offset=-2 / threads=12 / lookahead_threads=3 / sliced_threads=0 / nr=0 / decimate=1 / interlaced=0 / bluray_compat=0 / constrained_intra=0 / bframes=11 / b_pyramid=2 / b_adapt=2 / b_bias=0 / direct=3 / weightb=1 / open_gop=0 / weightp=2 / keyint=250 / keyint_min=23 / scenecut=40 / intra_refresh=0 / rc_lookahead=60 / rc=crf / mbtree=1 / crf=15.0 / qcomp=0.70 / qpmin=0 / qpmax=69 / qpstep=4 / vbv_maxrate=40000 / vbv_bufsize=30000 / crf_max=0.0 / nal_hrd=none / filler=0 / frame-packing=4 / ip_ratio=1.40 / aq=1:0.70
Language : English
Default : Yes
Forced : No
Audio #1
ID : 2
Format : AC-3
Format/Info : Audio Coding 3
Mode extension : CM (complete main)
Format settings, Endianness : Big
Codec ID : A_AC3
Duration : 1h 34mn
Bit rate mode : Constant
Bit rate : 384 Kbps
Channel(s) : 6 channels
Channel positions : Front: L C R, Side: L R, LFE
Sampling rate : 48.0 KHz
Bit depth : 16 bits
Compression mode : Lossy
Stream size : 261 MiB (3%)
Title : Дубляж - iTunes
Language : Russian
Default : Yes
Forced : No
Audio #2
ID : 3
Format : AC-3
Format/Info : Audio Coding 3
Mode extension : CM (complete main)
Format settings, Endianness : Big
Codec ID : A_AC3
Duration : 1h 34mn
Bit rate mode : Constant
Bit rate : 384 Kbps
Channel(s) : 6 channels
Channel positions : Front: L C R, Side: L R, LFE
Sampling rate : 48.0 KHz
Bit depth : 16 bits
Compression mode : Lossy
Stream size : 261 MiB (3%)
Title : Дубляж
Language : Ukrainian
Default : No
Forced : No
Audio #3
ID : 4
Format : AC-3
Format/Info : Audio Coding 3
Mode extension : CM (complete main)
Format settings, Endianness : Big
Codec ID : A_AC3
Duration : 1h 34mn
Bit rate mode : Constant
Bit rate : 640 Kbps
Channel(s) : 6 channels
Channel positions : Front: L C R, Side: L R, LFE
Sampling rate : 48.0 KHz
Bit depth : 16 bits
Compression mode : Lossy
Stream size : 434 MiB (5%)
Title : Original
Language : English
Default : No
Forced : No
Menu
00:00:00.000 : :1
00:07:22.692 : :2
00:11:36.778 : :3
00:15:46.403 : :4
00:20:02.241 : :5
00:25:21.435 : :6
00:26:47.063 : :7
00:30:10.182 : :8
00:34:45.791 : :9
00:36:02.284 : :10
00:37:45.304 : :11
00:41:27.358 : :12
00:43:35.612 : :13
00:45:19.507 : :14
00:46:51.849 : :15
00:50:02.456 : :16
00:51:34.340 : :17
00:56:12.159 : :18
01:00:03.682 : :19
01:01:17.840 : :20
01:03:50.367 : :21
01:06:27.190 : :22
01:11:15.770 : :23
01:13:40.539 : :24
01:15:38.658 : :25
01:20:00.336 : :26
01:23:57.198 : :27
01:26:18.338 : :28

Для оценки 3Д - Анимированные скрины















О методах просмотра 3D--

[Цитировать]



Показать сообщения:    

Текущее время: 07-Дек 17:29

Часовой пояс: UTC + 3


Вы не можете начинать темы
Вы не можете отвечать на сообщения
Вы не можете редактировать свои сообщения
Вы не можете удалять свои сообщения
Вы не можете голосовать в опросах
Вы не можете прикреплять файлы к сообщениям
Вы не можете скачивать файлы

!ВНИМАНИЕ!
Сайт не предоставляет электронные версии произведений, а занимается лишь коллекционированием и каталогизацией ссылок, присылаемых и публикуемых на форуме нашими читателями. Если вы являетесь правообладателем какого-либо представленного материала и не желаете, чтобы ссылка на него находилась в нашем каталоге, свяжитесь с нами, и мы незамедлительно удалим ее. Файлы для обмена на трекере предоставлены пользователями сайта, и администрация не несет ответственности за их содержание. Просьба не заливать файлы, защищенные авторскими правами, а также файлы нелегального содержания!