[ Сегодня идет свободное скачивание без начисления Download ]


Статистика раздачи
Нет
 
   
 
Top  
 
 
Головоломка
| Inside Out |

Информация о фильме
Название: Головоломка
Оригинальное название: Inside Out
Год выхода: 2015
Жанр: мультфильм, комедия, полнометражный
Режиссер: Пит Доктер, Роналдо Дель Кармен
В ролях: Эми Полер, Филлис Смит, Ричард Кайнд, Билл Хейдер, Льюис Блэк, Минди Кейлинг, Кейтлин Диас, Дайан Лэйн, Кайл МакЛоклен, Пола Паундстон, Бобби Мойнахан, Паула Пелл, Дэйв Гольц, Фрэнк Оз, Джош Кули, Фли, Джон Ратценбергер, Карлос Аласраки, Питер Сэгал, Рашида Джонс
О фильме:
Райли – обычная 11-летняя школьница, и, как у каждого из нас, ее поведение определяют пять базовых эмоций: Радость, Печаль, Страх, Гнев и Брезгливость. Эмоции живут в сознании девочки и каждый день помогают ей справляться с проблемами, руководя всеми ее поступками. До поры до времени эмоции живут дружно, но вдруг оказывается, что Райли и ее родителям предстоит переезд из небольшого уютного городка в шумный и людный мегаполис. Каждая из эмоций считает, что именно она лучше прочих знает, что нужно делать в этой непростой ситуации, и в голове у девочки наступает полная неразбериха. Чтобы наладить жизнь в большом городе, освоиться в новой школе и подружиться с одноклассниками, эмоциям Райли предстоит снова научиться работать сообща.


Страна: США
Студия: Pixar Animation Studios, Walt Disney Pictures
Продолжительность: 01:34:50
Перевод: Дублированный
Субтитры: Русские, английские
Файл
Качество: BDRip (AVC)
Видео: MPEG-4 AVC, 1614 Кбит/с, 720x404, 23.976 кадр/с
Аудио: AC3, 6 ch, 448 Кбит/с

MI

General
Unique ID : 203233547936704357101355214112707490918 (0x98E55B898BC8394DACA928A6BEB6B466)
Complete name : C:Inside.Out.2015.D.BDRip.AVC.ExKinoRay.mkv
Format : Matroska
Format version : Version 4 / Version 2
File size : 1.37 GiB
Duration : 1h 34mn
Overall bit rate : 2 065 Kbps
Movie name : Inside Out 2015 from ExKinoRay
Encoded date : UTC 2015-11-02 02:06:38
Writing application : mkvmerge v6.6.0 ('The Edge Of The In Between') built on Dec 1 2013 17:55:00
Writing library : libebml v1.3.0 + libmatroska v1.4.1
Video
ID : 1
Format : AVC
Format/Info : Advanced Video Codec
Format profile : High@L4.1
Format settings, CABAC : Yes
Format settings, ReFrames : 9 frames
Codec ID : V_MPEG4/ISO/AVC
Duration : 1h 34mn
Bit rate : 1 614 Kbps
Width : 720 pixels
Height : 404 pixels
Display aspect ratio : 16:9
Frame rate mode : Constant
Frame rate : 23.976 fps
Color space : YUV
Chroma subsampling : 4:2:0
Bit depth : 8 bits
Scan type : Progressive
Bits/(Pixel*Frame) : 0.231
Stream size : 1.04 GiB (76%)
Title : Enigma
Writing library : x264 core 133 r2334 a3ac64b
Encoding settings : cabac=1 / ref=9 / deblock=1:-2:-2 / analyse=0x3:0x113 / me=umh / subme=10 / psy=1 / psy_rd=1.00:0.15 / mixed_ref=1 / me_range=32 / chroma_me=1 / trellis=2 / 8x8dct=1 / cqm=0 / deadzone=21,11 / fast_pskip=0 / chroma_qp_offset=-3 / threads=12 / lookahead_threads=2 / sliced_threads=0 / nr=0 / decimate=0 / interlaced=0 / bluray_compat=0 / constrained_intra=0 / bframes=9 / b_pyramid=2 / b_adapt=2 / b_bias=0 / direct=3 / weightb=1 / open_gop=0 / weightp=2 / keyint=240 / keyint_min=23 / scenecut=40 / intra_refresh=0 / rc_lookahead=40 / rc=2pass / mbtree=0 / bitrate=1614 / ratetol=1.0 / qcomp=0.60 / qpmin=0 / qpmax=51 / qpstep=4 / cplxblur=20.0 / qblur=0.5 / vbv_maxrate=50000 / vbv_bufsize=62500 / nal_hrd=none / ip_ratio=1.40 / pb_ratio=1.30 / aq=1:1.00
Default : Yes
Forced : No
Color primaries : BT.709
Transfer characteristics : BT.709
Matrix coefficients : BT.709
Audio
ID : 2
Format : AC-3
Format/Info : Audio Coding 3
Mode extension : CM (complete main)
Format settings, Endianness : Big
Codec ID : A_AC3
Duration : 1h 34mn
Bit rate mode : Constant
Bit rate : 448 Kbps
Channel(s) : 6 channels
Channel positions : Front: L C R, Side: L R, LFE
Sampling rate : 48.0 KHz
Bit depth : 16 bits
Compression mode : Lossy
Stream size : 304 MiB (22%)
Title : DUB (Лицензия)
Language : Russian
Default : Yes
Forced : No
Text #1
ID : 3
Format : UTF-8
Codec ID : S_TEXT/UTF8
Codec ID/Info : UTF-8 Plain Text
Language : Russian
Default : No
Forced : No
Text #2
ID : 4
Format : UTF-8
Codec ID : S_TEXT/UTF8
Codec ID/Info : UTF-8 Plain Text
Language : English
Default : No
Forced : No
Menu
00:00:00.000 : :Chapter 01
00:07:22.692 : :Chapter 02
00:11:36.779 : :Chapter 03
00:15:46.403 : :Chapter 04
00:20:02.242 : :Chapter 05
00:25:21.436 : :Chapter 06
00:26:47.063 : :Chapter 07
00:30:10.183 : :Chapter 08
00:34:45.791 : :Chapter 09
00:36:02.285 : :Chapter 10
00:37:45.304 : :Chapter 11
00:41:27.359 : :Chapter 12
00:43:35.612 : :Chapter 13
00:45:19.508 : :Chapter 14
00:46:51.850 : :Chapter 15
00:50:02.457 : :Chapter 16
00:51:34.341 : :Chapter 17
00:56:12.160 : :Chapter 18
01:00:03.683 : :Chapter 19
01:01:17.840 : :Chapter 20
01:03:50.367 : :Chapter 21
01:06:27.191 : :Chapter 22
01:11:15.771 : :Chapter 23
01:13:40.540 : :Chapter 24
01:15:38.658 : :Chapter 25
01:20:00.336 : :Chapter 26
01:23:57.198 : :Chapter 27
01:26:18.339 : :Chapter 28

Релиз от:
Автор релиза:

[Цитировать]



Показать сообщения:    

Текущее время: 10-Дек 07:59

Часовой пояс: UTC + 3


Вы не можете начинать темы
Вы не можете отвечать на сообщения
Вы не можете редактировать свои сообщения
Вы не можете удалять свои сообщения
Вы не можете голосовать в опросах
Вы не можете прикреплять файлы к сообщениям
Вы не можете скачивать файлы

!ВНИМАНИЕ!
Сайт не предоставляет электронные версии произведений, а занимается лишь коллекционированием и каталогизацией ссылок, присылаемых и публикуемых на форуме нашими читателями. Если вы являетесь правообладателем какого-либо представленного материала и не желаете, чтобы ссылка на него находилась в нашем каталоге, свяжитесь с нами, и мы незамедлительно удалим ее. Файлы для обмена на трекере предоставлены пользователями сайта, и администрация не несет ответственности за их содержание. Просьба не заливать файлы, защищенные авторскими правами, а также файлы нелегального содержания!