[ Сегодня идет свободное скачивание без начисления Download ]


Статистика раздачи
Нет
 
   
 
Top  
 
 
Человек-муравей / Ant-Man (2015) WEB-DL [H.264/720p-LQ] [Line]- Производство: США
Жанр: Фантастика, Боевик, Комедия
Режиссер: Пейтон Рид
Актеры: Пол Радд, Майкл Дуглас, Эванджелин Лилли, Кори Столл, Майкл Пенья, Бобби Каннавале, Ти-Ай, Давид Дастмалчян, Эбби Райдер Фортсон, Джуди Грир
Описание:
Вооружившись удивительной способностью уменьшаться в размере, но обладать при этом большой силой, мошенник Скотт Лэнг должен стать героем и помочь своему наставнику, доктору Хэнку Пиму, сохранить в тайне существование костюма Человека-муравья от угроз нового поколения.
Дата мировой премьеры: 29 июня 2015
Дата премьеры в России: 16 июля 2015, «WDSSPR»
Дата премьеры в Украине: 16 июля 2015, «B&H Film Distribution Company»
Дата выхода DVD/Blu-ray релиза: 17 ноября 2015, «Уолт Дисней Компани СНГ»
Продолжительность: 01:57:21
Качество видео: WEB-DL [H.264/720p-LQ]
Перевод: Дублированный (Чистый звук)
Вид субтитров: Вщитые отключаемые
Язык субтитров: Английский
Видео: AVC/H.264, 1280x688, ~4015 kbps
Аудио #1: Русский: AC3, 6 ch, 384 kbps - (Центр с Line)
Аудио #2: Русский: AC3, 2 ch, 256 kbps - (Line)
Аудио #3: Английский: AC3, 6 ch, 384 kbps - (Оригинал)
Сэмпл: Скачать

Mediainfo:

Общее
Уникальный идентификатор                 : 252596403804866642022319356490848704870 (0xBE084C3C2D6184F7A0931CA003989966)
Полное имя                               : D:\Фильмы\Chelovek.muravej.2015.WEB-DL.720p.mkv
Формат                                   : Matroska
Версия формата                           : Version 4 / Version 2
Размер файла                             : 4,13 Гбайт
Продолжительность                        : 1 ч. 57 м.
Общий поток                              : 5041 Кбит/сек
Дата кодирования                         : UTC 2015-11-14 06:42:02
Программа кодирования                    : mkvmerge v8.5.0 ('Vanishing Act') 64bit
Библиотека кодирования                   : libebml v1.3.1 + libmatroska v1.4.2
Attachements                             : cover.jpg
DURATION                                 : 01:57:21.824000000
NUMBER_OF_FRAMES                         : 220057
NUMBER_OF_BYTES                          : 338007552
_STATISTICS_WRITING_APP                  : mkvmerge v8.5.0 ('Vanishing Act') 64bit
_STATISTICS_WRITING_DATE_UTC             : 2015-11-14 06:42:02
_STATISTICS_TAGS                         : BPS DURATION NUMBER_OF_FRAMES NUMBER_OF_BYTES
Видео
Идентификатор                            : 1
Формат                                   : AVC
Формат/Информация                        : Advanced Video Codec
Профиль формата                          : High@L3.1
Параметр CABAC формата                   : Нет
Параметр ReFrames формата                : 2 кадра
Идентификатор кодека                     : V_MPEG4/ISO/AVC
Продолжительность                        : 1 ч. 57 м.
Битрейт                                  : 3917 Кбит/сек
Ширина                                   : 1280 пикселей
Высота                                   : 688 пикселей
Соотношение сторон                       : 1,85:1
Режим частоты кадров                     : Постоянный
Частота кадров                           : 23,976 кадра/сек
Цветовое пространство                    : YUV
Субдискретизация насыщенности            : 4:2:0
Битовая глубина                          : 8 бит
Тип развёртки                            : Прогрессивная
Бит/(Пиксели*Кадры)                      : 0.186
Размер потока                            : 3,21 Гбайт (78%)
Язык                                     : English
Default                                  : Да
Forced                                   : Нет
colour_range                             : Limited
Основные цвета                           : BT.709
Характеристики трансфера                 : BT.709
Коэффициенты матрицы                     : BT.709
Аудио #1
Идентификатор                            : 2
Формат                                   : AC-3
Формат/Информация                        : Audio Coding 3
Расширение режима                        : CM (complete main)
Параметр Endianness формата              : Big
Идентификатор кодека                     : A_AC3
Продолжительность                        : 1 ч. 57 м.
Вид битрейта                             : Постоянный
Битрейт                                  : 384 Кбит/сек
Каналы                                   : 6 каналов
Расположение каналов                     : Front: L C R, Side: L R, LFE
Частота                                  : 48,0 КГц
Метод сжатия                             : С потерями
Размер потока                            : 322 Мбайт (8%)
Заголовок                                : AC3 / 5.1 / 384 kbps
Язык                                     : Russian
Default                                  : Да
Forced                                   : Нет
Аудио #2
Идентификатор                            : 3
Формат                                   : AC-3
Формат/Информация                        : Audio Coding 3
Расширение режима                        : CM (complete main)
Параметр Endianness формата              : Big
Идентификатор кодека                     : A_AC3
Продолжительность                        : 1 ч. 57 м.
Вид битрейта                             : Постоянный
Битрейт                                  : 256 Кбит/сек
Каналы                                   : 2 канала
Расположение каналов                     : Front: L R
Частота                                  : 48,0 КГц
Метод сжатия                             : С потерями
Размер потока                            : 215 Мбайт (5%)
Заголовок                                : AC3 / 2.0 / 256 kbps
Язык                                     : Russian
Default                                  : Нет
Forced                                   : Нет
Аудио #3
Идентификатор                            : 4
Формат                                   : AC-3
Формат/Информация                        : Audio Coding 3
Расширение режима                        : CM (complete main)
Параметр Endianness формата              : Big
Идентификатор кодека                     : A_AC3
Продолжительность                        : 1 ч. 57 м.
Вид битрейта                             : Постоянный
Битрейт                                  : 384 Кбит/сек
Каналы                                   : 6 каналов
Расположение каналов                     : Front: L C R, Side: L R, LFE
Частота                                  : 48,0 КГц
Метод сжатия                             : С потерями
Размер потока                            : 322 Мбайт (8%)
Заголовок                                : AC3 / 5.1 / 384 kbps
Язык                                     : English
Default                                  : Нет
Forced                                   : Нет
Текст
Идентификатор                            : 5
Формат                                   : UTF-8
Идентификатор кодека                     : S_TEXT/UTF8
Идентификатор кодека/Информация          : UTF-8 Plain Text
Язык                                     : English
Default                                  : Нет
Forced                                   : Нет
Меню
00:00:00.000                             : en:1
00:02:08.000                             : en:2
00:08:40.000                             : en:3
00:15:24.000                             : en:4
00:19:59.000                             : en:5
00:27:50.000                             : en:6
00:33:07.000                             : en:7
00:38:56.000                             : en:8
00:44:36.000                             : en:9
00:49:22.000                             : en:10
00:57:44.000                             : en:11
01:00:48.000                             : en:12
01:06:31.000                             : en:13
01:23:21.000                             : en:14
01:34:20.000                             : en:15
01:47:33.000                             : en:16

Avdump:

File: D:\Фильмы\Chelovek.muravej.2015.WEB-DL.720p.mkv
Duration: 01:57:22 (7041.82) - WARNING: Differs from video duration! (0.87 sec)
Track #1: video
lang: Unknown (1)
codc: V_MPEG4/ISO/AVC -> H264/AVC (22)
reso: 1280x688 -> Unknown (aka not common)
fram: 23.976000 fps
rate: 4015 kbps (4014.731201)
dura: 01:57:21 (7040.958008)
size: 3.29 GB (3533444289)
Track #2: audio (AC3 / 5.1 / 384 kbps)
lang: rus -> Russian (15)
codc: A_AC3 -> AC3 (2)
chan: 6 -> 5.1 Surround
samp: 48000 Hz
rate: 384 kbps (384.04)
dura: 01:57:22 (7041.63)
size: 322.38 MB (338036310)
Track #3: audio (AC3 / 2.0 / 256 kbps)
lang: rus -> Russian (15)
codc: A_AC3 -> AC3 (2)
chan: 2 -> Stereo
samp: 48000 Hz
rate: 256 kbps (256.04)
dura: 01:57:22 (7041.63)
size: 214.93 MB (225367127)
Track #4: audio (AC3 / 5.1 / 384 kbps)
lang: Unknown (1)
codc: A_AC3 -> AC3 (2)
chan: 6 -> 5.1 Surround
samp: 48000 Hz
rate: 384 kbps (384.04)
dura: 01:57:22 (7041.63)
size: 322.38 MB (338036316)
Track #5: subtitles
lang: Unknown (1)
type: S_TEXT/UTF8 -> SRT (3)
size: 52.23 KB (53483)
Sizes: (check sanity)
disk: 4.13 GB (4437281390)
atts: 283.50 KB (290304)
trac: 4.13 GB (4434937525) [based on track size]
bitr: 4.13 GB (4434797509) [based on bitrate]
tdif: 1.96 MB (2053561) 0.04%
bdif: 2.09 MB (2193576) 0.04%
Скриншоты:

[Цитировать]



Показать сообщения:    

Текущее время: 09-Дек 22:19

Часовой пояс: UTC + 3


Вы не можете начинать темы
Вы не можете отвечать на сообщения
Вы не можете редактировать свои сообщения
Вы не можете удалять свои сообщения
Вы не можете голосовать в опросах
Вы не можете прикреплять файлы к сообщениям
Вы не можете скачивать файлы

!ВНИМАНИЕ!
Сайт не предоставляет электронные версии произведений, а занимается лишь коллекционированием и каталогизацией ссылок, присылаемых и публикуемых на форуме нашими читателями. Если вы являетесь правообладателем какого-либо представленного материала и не желаете, чтобы ссылка на него находилась в нашем каталоге, свяжитесь с нами, и мы незамедлительно удалим ее. Файлы для обмена на трекере предоставлены пользователями сайта, и администрация не несет ответственности за их содержание. Просьба не заливать файлы, защищенные авторскими правами, а также файлы нелегального содержания!