[ Сегодня идет свободное скачивание без начисления Download ]


Статистика раздачи
Скачал: [ 2 ]
 
   
 
Top  
 
 
Час пик / Rush Hour
-Год выпуска: 1998
Страна: США
Жанр: Боевик, триллер, комедия, криминал
Продолжительность: 01:37:51
Перевод: Дубляж
Субтитры: Русские (Русские), английские (Английские SDH), немецкие (Немецкие SDH), Italian (Итальянские SDH), Spanish (Испанские (Кастильские)), Spanish (Испанские), Bulgarian (Болгарские), Croatian (Хорватские), Czech (Чешские), датские (Датские), Estonian (Эстонские), Finnish (Финские), Hungarian (Венгерские), Icelandic (Исландские)-Режиссер: Бретт Рэтнер / Brett Ratner-В ролях: Джеки Чан (Lee), Крис Такер (Carter), Элизабет Пенья (Johnson), Том Уилкинсон (Griffin), Кен Люн (Sang), Ци Ма (Consul Han), Марк Ролстон (Agent Warren Russ), Крис Пенн (Clive), Рекс Линн (Agent Dan Whitney), Филип Бейкер Холл (Captain Diel), Янг Лин (Consul Secretary), Джон Хоукс (Stucky)-Описание:
В Лос-Анджелесе злодеи похищают малолетнюю дочь китайского консула, которую в Гонконге учил кунг-фу инспектор Ли. Консул вызывает Ли в Америку, чтобы тот принял участие в освобождении девочки.
Агенты ФБР обратились к полиции с просьбой выделить им самого никчемного сотрудника, чтобы тот взял китайца на себя и показал ему достопримечательности, а главное, не позволил вмешиваться в их дела.
Им оказывается самый болтливый полицейский Картер. Естественно, после ряда разногласий и недоразумений они объединяют усилия и всерьез берутся за вызволение заложницы.-Рейтинг
kinopoisk.ru: 7.894 (65 270)
imdb.com: 6.90 (174 142)
MPAA: PG-13 - Детям до 13 лет просмотр не желателен-Качество: BDRip 720p / 60 fps
Формат: MKV
Видео кодек: AVC
Аудио кодек: AC3
Видео: AVC, 1280x520 (2.462), 4601 kbps, 59,940 fps, 0,115 bpp
Аудио: Русский / AC3 / 5.1 / 48 kHz / 448 kbps / 16 bit
Навигация по главам: Есть- -

MI

General
Unique ID : 199482086308218084483499145299353295296 (0x9612DA32E33BC526B825D27AEB6E59C0)
Complete name : E:\Кодировка\Новая папка\Час пик 60fps [Ressident].mkv
Format : Matroska
Format version : Version 4 / Version 2
File size : 3.52 GiB
Duration : 1h 37mn
Overall bit rate : 5 152 Kbps
Movie name : Час пик 60fps [Ressident]
Encoded date : UTC 2015-11-14 12:43:17
Writing application : mkvmerge v7.0.0 ('Where We Going') 64bit built on Jun 9 2014 15:16:27
Writing library : libebml v1.3.0 + libmatroska v1.4.1
Video
ID : 1
Format : AVC
Format/Info : Advanced Video Codec
Format profile : [email protected]
Format settings, CABAC : Yes
Format settings, ReFrames : 9 frames
Codec ID : V_MPEG4/ISO/AVC
Duration : 1h 37mn
Bit rate : 4 601 Kbps
Width : 1 280 pixels
Height : 520 pixels
Display aspect ratio : 2.462
Frame rate : 59.940 fps
Color space : YUV
Chroma subsampling : 4:2:0
Bit depth : 8 bits
Scan type : Progressive
Bits/(Pixel*Frame) : 0.115
Stream size : 3.15 GiB (89%)
Writing library : x264 core 146 r2538 121396c
Encoding settings : cabac=1 / ref=9 / deblock=1:0:0 / analyse=0x3:0x133 / me=umh / subme=10 / psy=1 / psy_rd=1.00:0.00 / mixed_ref=1 / me_range=24 / chroma_me=1 / trellis=2 / 8x8dct=1 / cqm=0 / deadzone=21,11 / fast_pskip=1 / chroma_qp_offset=-2 / threads=12 / lookahead_threads=2 / sliced_threads=0 / nr=0 / decimate=1 / interlaced=0 / bluray_compat=0 / constrained_intra=0 / bframes=8 / b_pyramid=2 / b_adapt=2 / b_bias=0 / direct=3 / weightb=1 / open_gop=0 / weightp=2 / keyint=250 / keyint_min=25 / scenecut=40 / intra_refresh=0 / rc=crf / mbtree=0 / crf=16.0 / qcomp=0.60 / qpmin=0 / qpmax=69 / qpstep=4 / ip_ratio=1.40 / pb_ratio=1.30 / aq=1:1.00
Language : English
Default : Yes
Forced : No
Audio
ID : 2
Format : AC-3
Format/Info : Audio Coding 3
Mode extension : CM (complete main)
Codec ID : A_AC3
Duration : 1h 37mn
Bit rate mode : Constant
Bit rate : 448 Kbps
Channel(s) : 6 channels
Channel positions : Front: L C R, Side: L R, LFE
Sampling rate : 48.0 KHz
Bit depth : 16 bits
Compression mode : Lossy
Stream size : 314 MiB (9%)
Title : Дубляж
Language : Russian
Default : Yes
Forced : No
Text #1
ID : 3
Format : UTF-8
Codec ID : S_TEXT/UTF8
Codec ID/Info : UTF-8 Plain Text
Title : Русские
Language : Russian
Default : No
Forced : No
Text #2
ID : 4
Format : UTF-8
Codec ID : S_TEXT/UTF8
Codec ID/Info : UTF-8 Plain Text
Title : Английские SDH
Language : English
Default : No
Forced : No
Text #3
ID : 5
Format : UTF-8
Codec ID : S_TEXT/UTF8
Codec ID/Info : UTF-8 Plain Text
Title : Немецкие SDH
Language : German
Default : No
Forced : No
Text #4
ID : 6
Format : UTF-8
Codec ID : S_TEXT/UTF8
Codec ID/Info : UTF-8 Plain Text
Title : Итальянские SDH
Language : Italian
Default : No
Forced : No
Text #5
ID : 7
Format : UTF-8
Codec ID : S_TEXT/UTF8
Codec ID/Info : UTF-8 Plain Text
Title : Испанские (Кастильские)
Language : Spanish
Default : No
Forced : No
Text #6
ID : 8
Format : UTF-8
Codec ID : S_TEXT/UTF8
Codec ID/Info : UTF-8 Plain Text
Title : Испанские
Language : Spanish
Default : No
Forced : No
Text #7
ID : 9
Format : UTF-8
Codec ID : S_TEXT/UTF8
Codec ID/Info : UTF-8 Plain Text
Title : Болгарские
Language : Bulgarian
Default : No
Forced : No
Text #8
ID : 10
Format : UTF-8
Codec ID : S_TEXT/UTF8
Codec ID/Info : UTF-8 Plain Text
Title : Хорватские
Language : Croatian
Default : No
Forced : No
Text #9
ID : 11
Format : UTF-8
Codec ID : S_TEXT/UTF8
Codec ID/Info : UTF-8 Plain Text
Title : Чешские
Language : Czech
Default : No
Forced : No
Text #10
ID : 12
Format : UTF-8
Codec ID : S_TEXT/UTF8
Codec ID/Info : UTF-8 Plain Text
Title : Датские
Language : Danish
Default : No
Forced : No
Text #11
ID : 13
Format : UTF-8
Codec ID : S_TEXT/UTF8
Codec ID/Info : UTF-8 Plain Text
Title : Эстонские
Language : Estonian
Default : No
Forced : No
Text #12
ID : 14
Format : UTF-8
Codec ID : S_TEXT/UTF8
Codec ID/Info : UTF-8 Plain Text
Title : Финские
Language : Finnish
Default : No
Forced : No
Text #13
ID : 15
Format : UTF-8
Codec ID : S_TEXT/UTF8
Codec ID/Info : UTF-8 Plain Text
Title : Венгерские
Language : Hungarian
Default : No
Forced : No
Text #14
ID : 16
Format : UTF-8
Codec ID : S_TEXT/UTF8
Codec ID/Info : UTF-8 Plain Text
Title : Исландские
Language : Icelandic
Default : No
Forced : No
Menu
00:00:00.000 : en:Opening Credits
00:02:28.022 : en:"Where Is Juntao?"
00:04:01.741 : en:Hong Kong, 1997
00:06:10.787 : en:C4
00:09:28.901 : en:School's Out
00:12:03.305 : en:Partners
00:15:16.957 : en:Going to the Show
00:17:11.697 : en:G-14 Classified
00:20:01.700 : en:Carter, FBI
00:22:53.580 : en:Supercops
00:27:04.456 : en:The United States of James Carter
00:29:16.963 : en:Azteca Shakedown
00:34:39.577 : en:Quick Hands
00:35:50.481 : en:Meet Inspector Li
00:38:46.907 : en:Get Carter
00:41:35.326 : en:Pickup on Sixth Street
00:43:32.359 : en:The Detonator
00:46:48.889 : en:Practice Makes Perfect
00:48:42.294 : en:"Give Me the Name"
00:51:11.902 : en:The Foo Chow
00:54:45.865 : en:Camel's Hump
00:57:35.076 : en:One From Column B
00:59:36.281 : en:"Fight Me Like a Man"
01:02:47.680 : en:Room Service
01:06:05.753 : en:Case Closed
01:08:14.131 : en:Juntao Calls
01:10:50.162 : en:A Lesson in Honor
01:13:07.925 : en:Getting the Drop on the Drop
01:16:33.380 : en:"Juntao!"
01:18:47.139 : en:"Thank You and Goodnight"
01:22:06.755 : en:Saving Vase
01:23:43.977 : en:"Meet Me on the Roof"
01:25:58.570 : en:Leave Them in Stitches
01:28:01.276 : en:A Banner Night
01:29:57.392 : en:Three Little Words
01:32:10.775 : en:End Credits/Bloopers
01:35:16.836 : en:Tail Credits

Скриншоты

Час Пик 2

Час пик 2 / Rush Hour 2
-Год выпуска: 2001
Страна: США, Гонконг
Жанр: Боевик, триллер, комедия, криминал, детектив
Продолжительность: 01:30:08
Перевод: Дубляж
Субтитры: Русские (Full), Estonian (Full), английские (Full), английские (SDH)-Режиссер: Бретт Рэтнер / Brett Ratner-В ролях: Джеки Чан (Lee), Крис Такер (Carter), Джон Лоун (Ricky Tan), Чжан Цзыи (Hu Li), Роселин Санчес (Isabella Molina), Алан Кинг (Steven Reign), Харрис Юлин (Agent Sterling), Кеннет Цан (Captain Chin), Лиза ЛоЦицеро (Receptionist), Мей Меланкон (Girl in Car), Мэгги Кью (Girl in Car), Патриция Чан (Club Hostess)-Описание:
История начинается непосредственно с того момента, на котором закончилась первая часть - полицейские Ли и Картер прибывают в Гонконг по следам преступников, замышляющих похищение китайский сокровищ и продажи их в штатах.
По мере того, как детективы Картер и Ли становятся все больше и больше запутанными в преступном заговоре, вовлекающем их в смертоносную Триаду, поездка в стиле нон-стоп от Гонконга до Лос-Анджелеса и Лас-Вегаса, оборачивается для них безумно интересным, смешным и в то же время опасным приключением.
Полицейские должны использовать все свои навыки, чтобы заманить в ловушку одного из самых опасных преступников в мире...-Рейтинг
kinopoisk.ru: 7.748 (45 424)
imdb.com: 6.60 (150 277)
MPAA: PG-13 - Детям до 13 лет просмотр не желателен-Качество: BDRip 720p / 60 fps
Формат: MKV
Видео кодек: AVC
Аудио кодек: AC3
Видео: AVC, 1280x544 (2.35:1), 6129 kbps, 59,940 fps, 0,147 bpp
Аудио: Русский / AC3 / 5.1 / 48 kHz / 448 kbps / 16 bit
Навигация по главам: Есть- -

MI

General
Unique ID : 198983449494010308225952216815012019102 (0x95B2D1817831E4399ECEF28C2155FB9E)
Complete name : E:\Кодировка\Новая папка\Час пик 2 60fps [Ressident].mkv
Format : Matroska
Format version : Version 4 / Version 2
File size : 4.23 GiB
Duration : 1h 30mn
Overall bit rate : 6 711 Kbps
Movie name : Час Пик 2 [Ressident 60 fps]
Encoded date : UTC 2015-11-14 12:06:40
Writing application : mkvmerge v7.0.0 ('Where We Going') 64bit built on Jun 9 2014 15:16:27
Writing library : libebml v1.3.0 + libmatroska v1.4.1
Video
ID : 1
Format : AVC
Format/Info : Advanced Video Codec
Format profile : [email protected]
Format settings, CABAC : Yes
Format settings, ReFrames : 9 frames
Codec ID : V_MPEG4/ISO/AVC
Duration : 1h 30mn
Bit rate : 6 130 Kbps
Width : 1 280 pixels
Height : 544 pixels
Display aspect ratio : 2.35:1
Frame rate : 59.940 fps
Color space : YUV
Chroma subsampling : 4:2:0
Bit depth : 8 bits
Scan type : Progressive
Bits/(Pixel*Frame) : 0.147
Stream size : 3.86 GiB (91%)
Writing library : x264 core 146 r2538 121396c
Encoding settings : cabac=1 / ref=9 / deblock=1:0:0 / analyse=0x3:0x133 / me=umh / subme=10 / psy=1 / psy_rd=1.00:0.00 / mixed_ref=1 / me_range=24 / chroma_me=1 / trellis=2 / 8x8dct=1 / cqm=0 / deadzone=21,11 / fast_pskip=1 / chroma_qp_offset=-2 / threads=12 / lookahead_threads=1 / sliced_threads=0 / nr=0 / decimate=1 / interlaced=0 / bluray_compat=0 / constrained_intra=0 / bframes=5 / b_pyramid=2 / b_adapt=2 / b_bias=0 / direct=3 / weightb=1 / open_gop=0 / weightp=2 / keyint=250 / keyint_min=25 / scenecut=40 / intra_refresh=0 / rc=crf / mbtree=0 / crf=16.6 / qcomp=0.60 / qpmin=0 / qpmax=69 / qpstep=4 / ip_ratio=1.40 / pb_ratio=1.30 / aq=1:1.00
Language : English
Default : Yes
Forced : No
Audio
ID : 2
Format : AC-3
Format/Info : Audio Coding 3
Mode extension : CM (complete main)
Codec ID : A_AC3
Duration : 1h 30mn
Bit rate mode : Constant
Bit rate : 448 Kbps
Channel(s) : 6 channels
Channel positions : Front: L C R, Side: L R, LFE
Sampling rate : 48.0 KHz
Bit depth : 16 bits
Compression mode : Lossy
Stream size : 289 MiB (7%)
Title : Дублированный
Language : Russian
Default : Yes
Forced : No
Text #1
ID : 3
Format : UTF-8
Codec ID : S_TEXT/UTF8
Codec ID/Info : UTF-8 Plain Text
Title : Full
Language : Russian
Default : No
Forced : No
Text #2
ID : 4
Format : UTF-8
Codec ID : S_TEXT/UTF8
Codec ID/Info : UTF-8 Plain Text
Title : Full
Language : Estonian
Default : No
Forced : No
Text #3
ID : 5
Format : UTF-8
Codec ID : S_TEXT/UTF8
Codec ID/Info : UTF-8 Plain Text
Title : Full
Language : English
Default : No
Forced : No
Text #4
ID : 6
Format : UTF-8
Codec ID : S_TEXT/UTF8
Codec ID/Info : UTF-8 Plain Text
Title : SDH
Language : English
Default : No
Forced : No
Menu
00:00:00.000 : en:Deadly Delivery
00:04:37.235 : en:Triad Club
00:13:30.601 : en:Heaven On Earth
00:21:42.884 : en:Bigger than Ricky Tan
00:27:48.833 : en:Out to Sea
00:33:22.917 : en:Tan Overboard
00:38:50.244 : en:Follow the Rich White Man
00:47:11.078 : en:Crenshaw Kitchen
00:51:18.116 : en:Road Trip
00:58:56.241 : en:Red Dragon
01:03:52.036 : en:Let's Play Some Craps!
01:08:59.093 : en:An Explosive Situation
01:14:51.570 : en:Carter v. Hu Li
01:17:29.603 : en:Just Like Your Father
01:22:03.335 : en:Goodbye?
01:24:38.114 : en:Outtakes
01:30:06.776 : en:End Credits

Скриншоты

Час Пик 3

Час пик 3 / Rush Hour 3
-Год выпуска: 2007
Страна: США, Германия
Жанр: Боевик, триллер, комедия, криминал
Продолжительность: 01:30:47
Перевод: Дубляж
Субтитры: Русские, украинские, английские-Режиссер: Бретт Рэтнер / Brett Ratner-В ролях: Крис Такер (Carter), Джеки Чан (Lee), Макс фон Сюдов (Reynard), Хироюки Санада (Kenji), Иван Атталь (George), Юки Кудо (Dragon Lady), Ноэми Ленуар (Genevieve), Чжан Цзинчу (Soo Yung), Ци Ма (Ambassador Han), Дэна Айви (Sister Agnes), Генри О (Master Yu), Миа Тайлер (Marsha)-Описание:
Лос-анджелесского полицейского Джеймса Картера, допустившего грубую ошибку при аресте подозреваемого, переводят на гораздо менее престижную должность в дорожной полиции. Тем временем гонконгский полицейский инспектор Ли получает спецзадание: он должен охранять китайского посла Хана, который направляется в Лос-Анджелес, чтобы произнести там речь на саммите Всемирного уголовного суда.
Хан намеревается разоблачить интриги китайской Триады - самого опасного криминального синдиката в мире - и вывести на чистую воду преступных боссов. Представители Триады, разумеется, не дремлют. Они отправляют в Лос-Анджелес наемного убийцу, которому удается ранить посла в тот самый момент, когда он начинает произносить свою разоблачительную речь. Ли бросается вдогонку за преступником. Тем временем Картер, услышав по полицейскому радио сообщение о покушении на посла, мчится на место преступления... и, естественно, только путается под ногами у Ли.-Рейтинг
kinopoisk.ru: 7.066 (32 960)
imdb.com: 6.20 (113 044)
MPAA: PG-13 - Детям до 13 лет просмотр не желателен-Качество: BDRip 720p / 60 fps
Формат: MKV
Видео кодек: AVC
Аудио кодек: AC3
Видео: AVC, 1280x544 (2.35:1), 4943 kbps, 59,940 fps, 0,118 bpp
Аудио: Русский / AC3 / 5.1 / 48 kHz / 448 kbps / 16 bit
Навигация по главам: Есть- -

MI

General
Unique ID : 195609523872066860884358143031570238056 (0x9329062125265B19B36E788AF8568A68)
Complete name : E:\Кодировка\Новая папка\Час пик 3 60fps [Ressident].mkv
Format : Matroska
Format version : Version 4 / Version 2
File size : 3.49 GiB
Duration : 1h 30mn
Overall bit rate : 5 501 Kbps
Movie name : Час Пик 3 [Ressident 60 fps]
Encoded date : UTC 2015-11-14 12:03:41
Writing application : mkvmerge v7.0.0 ('Where We Going') 64bit built on Jun 9 2014 15:16:27
Writing library : libebml v1.3.0 + libmatroska v1.4.1
Video
ID : 1
Format : AVC
Format/Info : Advanced Video Codec
Format profile : [email protected]
Format settings, CABAC : Yes
Format settings, ReFrames : 6 frames
Codec ID : V_MPEG4/ISO/AVC
Duration : 1h 30mn
Bit rate : 4 943 Kbps
Width : 1 280 pixels
Height : 544 pixels
Display aspect ratio : 2.35:1
Frame rate : 59.940 fps
Color space : YUV
Chroma subsampling : 4:2:0
Bit depth : 8 bits
Scan type : Progressive
Bits/(Pixel*Frame) : 0.118
Stream size : 3.13 GiB (90%)
Writing library : x264 core 146 r2538 121396c
Encoding settings : cabac=1 / ref=6 / deblock=1:0:0 / analyse=0x3:0x133 / me=umh / subme=10 / psy=1 / psy_rd=1.00:0.00 / mixed_ref=1 / me_range=24 / chroma_me=1 / trellis=2 / 8x8dct=1 / cqm=0 / deadzone=21,11 / fast_pskip=1 / chroma_qp_offset=-2 / threads=12 / lookahead_threads=2 / sliced_threads=0 / nr=0 / decimate=1 / interlaced=0 / bluray_compat=0 / constrained_intra=0 / bframes=8 / b_pyramid=2 / b_adapt=2 / b_bias=0 / direct=3 / weightb=1 / open_gop=0 / weightp=2 / keyint=250 / keyint_min=25 / scenecut=40 / intra_refresh=0 / rc=crf / mbtree=0 / crf=16.0 / qcomp=0.60 / qpmin=0 / qpmax=69 / qpstep=4 / ip_ratio=1.40 / pb_ratio=1.30 / aq=1:1.00
Language : English
Default : Yes
Forced : No
Audio
ID : 2
Format : AC-3
Format/Info : Audio Coding 3
Mode extension : CM (complete main)
Codec ID : A_AC3
Duration : 1h 30mn
Bit rate mode : Constant
Bit rate : 448 Kbps
Channel(s) : 6 channels
Channel positions : Front: L C R, Side: L R, LFE
Sampling rate : 48.0 KHz
Bit depth : 16 bits
Compression mode : Lossy
Stream size : 291 MiB (8%)
Title : Дубляж
Language : Russian
Default : Yes
Forced : No
Text #1
ID : 3
Format : UTF-8
Codec ID : S_TEXT/UTF8
Codec ID/Info : UTF-8 Plain Text
Title : Forced
Language : Russian
Default : Yes
Forced : No
Text #2
ID : 4
Format : UTF-8
Codec ID : S_TEXT/UTF8
Codec ID/Info : UTF-8 Plain Text
Language : Russian
Default : No
Forced : No
Text #3
ID : 5
Format : UTF-8
Codec ID : S_TEXT/UTF8
Codec ID/Info : UTF-8 Plain Text
Language : Ukrainian
Default : No
Forced : No
Text #4
ID : 6
Format : UTF-8
Codec ID : S_TEXT/UTF8
Codec ID/Info : UTF-8 Plain Text
Language : English
Default : No
Forced : No
Menu
00:00:00.000 : en:Main Titles
00:05:06.556 : en:Attack at the World Court
00:09:24.230 : en:The Promise
00:12:03.597 : en:The Master
00:17:21.081 : en:Hospital Ambush
00:20:44.117 : en:Interrogation
00:24:06.111 : en:Welcome to Paris
00:29:48.661 : en:Searching for Genevieve
00:35:57.989 : en:Superspy Chase
00:41:56.472 : en:Brothers
00:47:48.323 : en:Showtime!
00:54:17.212 : en:Shy Shen
01:05:50.988 : en:The First Cut
01:11:06.512 : en:Tower Duel
01:15:14.760 : en:What Goes Up
01:21:43.857 : en:Outtakes/End Credits

Скриншоты

[Цитировать]

Всем приятного просмотра

[Цитировать]



Показать сообщения:    

Текущее время: 05-Дек 13:34

Часовой пояс: UTC + 3


Вы не можете начинать темы
Вы не можете отвечать на сообщения
Вы не можете редактировать свои сообщения
Вы не можете удалять свои сообщения
Вы не можете голосовать в опросах
Вы не можете прикреплять файлы к сообщениям
Вы не можете скачивать файлы

!ВНИМАНИЕ!
Сайт не предоставляет электронные версии произведений, а занимается лишь коллекционированием и каталогизацией ссылок, присылаемых и публикуемых на форуме нашими читателями. Если вы являетесь правообладателем какого-либо представленного материала и не желаете, чтобы ссылка на него находилась в нашем каталоге, свяжитесь с нами, и мы незамедлительно удалим ее. Файлы для обмена на трекере предоставлены пользователями сайта, и администрация не несет ответственности за их содержание. Просьба не заливать файлы, защищенные авторскими правами, а также файлы нелегального содержания!