[ Сегодня идет свободное скачивание без начисления Download ]


Статистика раздачи
Нет
 
   
 
Top  
 
 
Адмирал / Michiel de Ruyter (2015) BDRip 720p Название: Адмирал
Оригинальное название: Michiel de Ruyter
Год выпуска: 2015
Жанр: Боевик, биография, история
Выпущено: Нидерланды, Farmhouse Film & TV, Ciné Cri De Coeur, AVROTROS
Режиссер: Роэль Рейн
В ролях: Франк Ламерс, Барри Атсма, Рёланд Фернхут, Эгберт Ян Вебер, Тиго Гернандт, Дерек де Линт, Хайо Брюинс, Жуль Кройсет
О фильме: Михил Рюйтер был одним из самых главных новаторов в боевой технике. Он стал героем голландского флота.В то время как Голландию, находившуюся на грани гражданской войны, атаковали со всех сторон, лишь один человек пытался бороться за интересы страны — Михаил Рюйтер. Но в глазах власть имущих его успехи делали его слишком популярным, и Рюйтера отправили на смертельно опасное задание…

Качество: BDRip 720p
Видео: MPEG-4 AVC, 4275 Кбит/с, 1280x538
Аудио: Русский (AC3, 6 ch, 640 Кбит/с), (DTS, 6 ch, 1510 Кбит/с), голландский (DTS, 6 ch, 1510 Кбит/с)
Продолжительность: 02:31:54
Перевод: Авторский (одноголосый, закадровый) [Ю.Сербин]
Субтитры: Русские, английские

Скриншоты

MediaInfo

General
Unique ID : 217552912105507210989021702755866408260 (0xA3AB2AB2D51071CAB889A325EDA47544)
Complete name : D:ВидеоAdmiral.2015.BDRip.720p.mkv
Format : Matroska
Format version : Version 2
File size : 8.59 GiB
Duration : 2h 31mn
Overall bit rate : 8 094 Kbps
Encoded date : UTC 2015-11-14 11:37:11
Writing application : mkvmerge v7.6.0 ('Garden of Dreams') 32bit built on Feb 11 2015 00:18:47
Writing library : libebml v1.3.1 + libmatroska v1.4.2
Video
ID : 1
Format : AVC
Format/Info : Advanced Video Codec
Format profile : [email protected]
Format settings, CABAC : Yes
Format settings, ReFrames : 12 frames
Codec ID : V_MPEG4/ISO/AVC
Duration : 2h 31mn
Bit rate : 4 275 Kbps
Width : 1 280 pixels
Height : 538 pixels
Display aspect ratio : 2.40:1
Frame rate mode : Constant
Frame rate : 24.000 fps
Color space : YUV
Chroma subsampling : 4:2:0
Bit depth : 8 bits
Scan type : Progressive
Bits/(Pixel*Frame) : 0.259
Stream size : 4.54 GiB (53%)
Writing library : x264 core 146 r0+2586 e393126 t_mod_Custom [[email protected] X86_64]
Encoding settings : cabac=1 / ref=12 / deblock=1:-3:-3 / analyse=0x3:0x133 / me=umh / subme=10 / psy=1 / fade_compensate=0.00 / psy_rd=1.05:0.00 / mixed_ref=1 / me_range=32 / chroma_me=1 / trellis=2 / 8x8dct=1 / cqm=0 / deadzone=21,11 / fast_pskip=0 / chroma_qp_offset=-2 / threads=6 / lookahead_threads=1 / sliced_threads=0 / nr=0 / decimate=0 / interlaced=0 / bluray_compat=0 / constrained_intra=0 / fgo=0 / bframes=7 / b_pyramid=2 / b_adapt=2 / b_bias=0 / direct=3 / weightb=1 / open_gop=0 / weightp=2 / keyint=250 / keyint_min=24 / scenecut=40 / intra_refresh=0 / rc_lookahead=60 / rc=crf / mbtree=0 / crf=16.0000 / qcomp=0.60 / qpmin=0:0:0 / qpmax=69:69:69 / qpstep=4 / vbv_maxrate=62500 / vbv_bufsize=78125 / crf_max=0.0 / nal_hrd=none / filler=0 / ip_ratio=1.30 / pb_ratio=1.20 / aq=1:1.00 / aq-sensitivity=10.00 / aq-factor=1.00:1.00:1.00 / aq2=0 / aq3=0
Language : English
Default : Yes
Forced : No
Audio #1
ID : 2
Format : AC-3
Format/Info : Audio Coding 3
Mode extension : CM (complete main)
Format settings, Endianness : Big
Codec ID : A_AC3
Duration : 2h 31mn
Bit rate mode : Constant
Bit rate : 640 Kbps
Channel(s) : 6 channels
Channel positions : Front: L C R, Side: L R, LFE
Sampling rate : 48.0 KHz
Bit depth : 16 bits
Compression mode : Lossy
Stream size : 695 MiB (8%)
Title : Ю.Сербин
Language : Russian
Default : Yes
Forced : No
Audio #2
ID : 3
Format : DTS
Format/Info : Digital Theater Systems
Mode : 16
Format settings, Endianness : Big
Codec ID : A_DTS
Duration : 2h 31mn
Bit rate mode : Constant
Bit rate : 1 509 Kbps
Channel(s) : 6 channels
Channel positions : Front: L C R, Side: L R, LFE
Sampling rate : 48.0 KHz
Bit depth : 24 bits
Compression mode : Lossy
Stream size : 1.60 GiB (19%)
Title : Ю.Сербин
Language : Russian
Default : No
Forced : No
Audio #3
ID : 4
Format : DTS
Format/Info : Digital Theater Systems
Mode : 16
Format settings, Endianness : Big
Codec ID : A_DTS
Duration : 2h 31mn
Bit rate mode : Constant
Bit rate : 1 509 Kbps
Channel(s) : 6 channels
Channel positions : Front: L C R, Side: L R, LFE
Sampling rate : 48.0 KHz
Bit depth : 24 bits
Compression mode : Lossy
Stream size : 1.60 GiB (19%)
Language : Dutch
Default : No
Forced : No
Text #1
ID : 5
Format : UTF-8
Codec ID : S_TEXT/UTF8
Codec ID/Info : UTF-8 Plain Text
Language : Russian
Default : Yes
Forced : No
Text #2
ID : 6
Format : UTF-8
Codec ID : S_TEXT/UTF8
Codec ID/Info : UTF-8 Plain Text
Language : English
Default : No
Forced : No
Menu
00:00:00.000 : en:00:00:00.000
00:15:20.708 : en:00:15:20.708
00:32:30.875 : en:00:32:30.875
00:49:20.875 : en:00:49:20.875
00:59:50.667 : en:00:59:50.667
01:19:50.417 : en:01:19:50.417
01:39:18.792 : en:01:39:18.792
01:55:04.667 : en:01:55:04.667
02:10:07.500 : en:02:10:07.500

[Цитировать]



Показать сообщения:    

Текущее время: 04-Дек 04:57

Часовой пояс: UTC + 3


Вы не можете начинать темы
Вы не можете отвечать на сообщения
Вы не можете редактировать свои сообщения
Вы не можете удалять свои сообщения
Вы не можете голосовать в опросах
Вы не можете прикреплять файлы к сообщениям
Вы не можете скачивать файлы

!ВНИМАНИЕ!
Сайт не предоставляет электронные версии произведений, а занимается лишь коллекционированием и каталогизацией ссылок, присылаемых и публикуемых на форуме нашими читателями. Если вы являетесь правообладателем какого-либо представленного материала и не желаете, чтобы ссылка на него находилась в нашем каталоге, свяжитесь с нами, и мы незамедлительно удалим ее. Файлы для обмена на трекере предоставлены пользователями сайта, и администрация не несет ответственности за их содержание. Просьба не заливать файлы, защищенные авторскими правами, а также файлы нелегального содержания!