[ Сегодня идет свободное скачивание без начисления Download ]


Статистика раздачи
Нет
 
   
 
Top  
 
 
Мой Аттила Марсель / Attila Marcel (2013) BDRip 1080p Информация о фильме
Название: Мой Аттила Марсель
Оригинальное название: Attila Marcel
Год выхода: 2013
Жанр: Комедия, драма
Режиссер: Сильвен Шомэ
В ролях: Гийом Гуи, Анн Ле Ни, Бернадетт Лафон, Элен Венсан, Луис Рего, Фанни Турон, Жан-Клод Дрейфус, Венсан Деньяр, Сирил Коутон
О фильме:
Полю тридцать лет, он живет в парижской квартире со своими тетями, двумя пожилыми аристократками, которые воспитывали его с двух лет и мечтают о том, чтобы он стал пианистом-виртуозом. Жизнь Поля — повседневная рутина, ограничивающаяся пианино в гостиной и школой танцев его тети, в которой он работает аккомпаниатором. Изолированный от внешнего мира, Поль стареет, так и не успев познакомиться с жизнью… До того дня, как происходит его встреча с мадам Пруст, соседкой с четвертого этажа. У этой эксцентричной женщины имеется рецепт травяного чая, который может с помощью музыки вызвать давно похороненные воспоминания…

Выпущено: Франция
Продолжительность: 01:46:10
Перевод: Профессиональный (полное дублирование) - iTunes
Файл
Качество: BDRip 1080p
Формат: MKV
Видео: MPEG4/AVC, 1920х1040, 10.6 Mbps, 24.000 кадра/сек
Аудио 1: AC3, 6 каналов, 384 Кбит/сек | Русский
Аудио 2: AC3, 6 каналов, 384 Кбит/сек | Французский
Субтитры: русские полные и форсированные
Навигация по главам: Есть--

M/I

General
Unique ID : 213218030871515454513567530956668165225 (0xA0684C8D7BE284D5AE89E2DCE9625C69)
Complete name : E:КиноМой Аттила Марсель.(2013).BLU-RAY.1080p.[-=DoMiNo=-] (1).mkv
Format : Matroska
Format version : Version 4 / Version 2
File size : 8.59 GiB
Duration : 1h 46mn
Overall bit rate : 11.6 Mbps
Movie name : Мой Аттила Марсель
Encoded date : UTC 2015-11-15 14:13:35
Writing application : mkvmerge v8.3.0 ('Over the Horizon') 64bit
Writing library : Lavf56.25.101
Attachements : cover.png
ORIGINAL_TITLE : Attila Marcel
DATE : 2013
GENRE : комедия
ENCODING_INFO : BluRay > MKV 1080p / VC1 > X264 CRF 19.5 Custom / AC3 > COPY
SYNOPSIS : Полю тридцать лет, он живет в парижской квартире со своими тетями, двумя пожилыми аристократками, которые воспитывали его с двух лет и мечтают о том, чтобы он стал пианистом-виртуозом. Жизнь Поля — повседневная рутина, ограничивающаяся пианино в гостиной и школой танцев его тети, в которой он работает аккомпаниатором. Изолированный от внешнего мира, Поль стареет, так и не успев познакомиться с жизнью… До того дня, как происходит его встреча с мадам Пруст, соседкой с четвертого этажа. У этой эксцентричной женщины имеется рецепт травяного чая, который может с помощью музыки вызвать давно похороненные воспоминания…
ITUNEXTC : ru-movie|16+|375|
ACTORS : Гийом Гуи, Анн Ле Ни, Бернадетт Лафон, Элен Венсан, Луис Рего, Фанни Турон, Kea Kaing, Жан-Клод Дрейфус, Венсан Деньяр, Сирил Коутон, Даниил Эльдаров, Людмила Ильина, Елена Войновская, Ирина Пономарева, Леонид Белозорович, показать всех
DIRECTOR : Сильвен Шомэ
PRODUCER : Крис Болзли, Клоди Оссар, Франсуа-Ксавьер Декраен
WRITER : Сильвен Шомэ
COUNTRY : Франция
RATING : 7.137
IMDB_RATING : 7.00
DURATION : 01:45:38.459000000
NUMBER_OF_FRAMES : 780
NUMBER_OF_BYTES : 41660
_STATISTICS_WRITING_APP : mkvmerge v8.3.0 ('Over the Horizon') 64bit
_STATISTICS_WRITING_DATE_UT : 2015-11-15 14:13:35
_STATISTICS_TAGS : BPS DURATION NUMBER_OF_FRAMES NUMBER_OF_BYTES
Video
ID : 1
Format : AVC
Format/Info : Advanced Video Codec
Format profile : High@L4.1
Format settings, CABAC : Yes
Format settings, ReFrames : 4 frames
Codec ID : V_MPEG4/ISO/AVC
Duration : 1h 46mn
Bit rate : 10.6 Mbps
Width : 1 920 pixels
Height : 1 040 pixels
Display aspect ratio : 1.85:1
Frame rate mode : Constant
Frame rate : 24.000 fps
Color space : YUV
Chroma subsampling : 4:2:0
Bit depth : 8 bits
Scan type : Progressive
Bits/(Pixel*Frame) : 0.221
Stream size : 7.85 GiB (91%)
Title : Мой Аттила Марсель.(2013).BLU-RAY.1080p.[-=DoMiNo=-]
Writing library : x264 core 148 r2638M 7599210
Encoding settings : cabac=1 / ref=4 / deblock=1:-3:-3 / analyse=0x3:0x113 / me=umh / subme=10 / psy=1 / psy_rd=1.00:0.10 / mixed_ref=1 / me_range=32 / chroma_me=1 / trellis=2 / 8x8dct=1 / cqm=0 / deadzone=21,11 / fast_pskip=0 / chroma_qp_offset=-3 / threads=5 / lookahead_threads=1 / sliced_threads=0 / nr=0 / decimate=1 / interlaced=0 / bluray_compat=0 / constrained_intra=0 / bframes=6 / b_pyramid=2 / b_adapt=2 / b_bias=0 / direct=1 / weightb=1 / open_gop=0 / weightp=2 / keyint=240 / keyint_min=24 / scenecut=40 / intra_refresh=0 / rc=crf / mbtree=0 / crf=19.5 / qcomp=0.60 / qpmin=19 / qpmax=69 / qpstep=4 / ip_ratio=1.40 / pb_ratio=1.30 / aq=1:1.00
Default : Yes
Forced : No
Color range : Limited
Color primaries : BT.709
Transfer characteristics : BT.709
Matrix coefficients : BT.709
DURATION : 01:46:11.042000000
NUMBER_OF_FRAMES : 152905
NUMBER_OF_BYTES : 8605618791
_STATISTICS_WRITING_APP : mkvmerge v8.3.0 ('Over the Horizon') 64bit
_STATISTICS_WRITING_DATE_UT : 2015-11-15 14:13:35
_STATISTICS_TAGS : BPS DURATION NUMBER_OF_FRAMES NUMBER_OF_BYTES
Audio #1
ID : 2
Format : AC-3
Format/Info : Audio Coding 3
Mode extension : CM (complete main)
Format settings, Endianness : Big
Codec ID : A_AC3
Duration : 1h 46mn
Bit rate mode : Constant
Bit rate : 384 Kbps
Channel(s) : 6 channels
Channel positions : Front: L C R, Side: L R, LFE
Sampling rate : 48.0 KHz
Compression mode : Lossy
Stream size : 292 MiB (3%)
Title : DUB_ [iTunes] RUS
Language : Russian
Default : Yes
Forced : No
DURATION : 01:46:11.072000000
NUMBER_OF_FRAMES : 199096
NUMBER_OF_BYTES : 305811456
_STATISTICS_WRITING_APP : mkvmerge v8.3.0 ('Over the Horizon') 64bit
_STATISTICS_WRITING_DATE_UT : 2015-11-15 14:13:35
_STATISTICS_TAGS : BPS DURATION NUMBER_OF_FRAMES NUMBER_OF_BYTES
Audio #2
ID : 3
Format : AC-3
Format/Info : Audio Coding 3
Mode extension : CM (complete main)
Format settings, Endianness : Big
Codec ID : A_AC3
Duration : 1h 46mn
Bit rate mode : Constant
Bit rate : 384 Kbps
Channel(s) : 6 channels
Channel positions : Front: L C R, Side: L R, LFE
Sampling rate : 48.0 KHz
Compression mode : Lossy
Stream size : 292 MiB (3%)
Title : FRE
Language : French
Default : No
Forced : No
Text #1
ID : 4
Format : UTF-8
Codec ID : S_TEXT/UTF8
Codec ID/Info : UTF-8 Plain Text
Title : RUS_FORSED
Language : Russian
Default : No
Forced : No
Text #2
ID : 5
Format : UTF-8
Codec ID : S_TEXT/UTF8
Codec ID/Info : UTF-8 Plain Text
Title : RUS_FULL
Language : Russian
Default : No
Forced : No
Menu
00:00:00.000 : :Глава 1
00:11:21.916 : :Глава 2
00:19:32.413 : :Глава 3
00:23:08.875 : :Глава 4
00:28:27.583 : :Глава 5
00:35:49.875 : :Глава 6
00:44:14.833 : :Глава 7
00:49:19.666 : :Глава 8
00:54:57.958 : :Глава 9
01:02:17.750 : :Глава 10
01:10:31.457 : :Глава 11
01:17:29.375 : :Глава 12
01:23:30.957 : :Глава 13
01:29:08.041 : :Глава 14
01:35:29.250 : :Глава 15
01:41:58.082 : :Глава 16
01:46:10.791 : :Глава 17

Скриншоты

[Цитировать]



Показать сообщения:    

Текущее время: 08-Дек 10:50

Часовой пояс: UTC + 3


Вы не можете начинать темы
Вы не можете отвечать на сообщения
Вы не можете редактировать свои сообщения
Вы не можете удалять свои сообщения
Вы не можете голосовать в опросах
Вы не можете прикреплять файлы к сообщениям
Вы не можете скачивать файлы

!ВНИМАНИЕ!
Сайт не предоставляет электронные версии произведений, а занимается лишь коллекционированием и каталогизацией ссылок, присылаемых и публикуемых на форуме нашими читателями. Если вы являетесь правообладателем какого-либо представленного материала и не желаете, чтобы ссылка на него находилась в нашем каталоге, свяжитесь с нами, и мы незамедлительно удалим ее. Файлы для обмена на трекере предоставлены пользователями сайта, и администрация не несет ответственности за их содержание. Просьба не заливать файлы, защищенные авторскими правами, а также файлы нелегального содержания!