[ Сегодня идет свободное скачивание без начисления Download ]


Статистика раздачи
Нет
 
   
 
Top  
 
 
Крепость: щитом и мечом (2015)Информация о фильме
Оригинальное название: Крепость: щитом и мечом
Год выхода: 2015
Жанр: мультфильм, приключения, военный
Режиссер: Федор Дмитриев
В ролях: Пётр Фёдоров, Евгений Стычкин
О фильме:
1609 год. Идет война. Польско-литовские войска взяли в осаду Смоленск, но русский гарнизон во главе с воеводой Михаилом Шеиным готов держать оборону до конца. Смоленск — главная крепость на пути захватчиков к Москве, и его нельзя сдавать без боя. Об этом знают даже дети.
Мальчик Сашка лепит самодельные бомбы из теста и колдует в защиту города — вызывает на помощь Царя с Огненным щитом и Пламенным копьем. Пока волшебный царь не пришел, Сашка и его друг Федор просятся в помощники к воеводе. Им предстоит разрушить коварные планы польского короля Сигизмунда Третьего и справиться с нечистой силой, что по ночам бродит по осажденной крепости.

Страна: Россия
Студия: Кинокомпания CTB, Анимационная студия Мельница
Продолжительность: 01:16:43
Перевод: Оригинальный (iTunes)
Файл
Формат: Matroska
Видео: 1920x804 at 24.000 fps, MPEG-4 AVC, ~4300 kbps avg
Аудио: 48 kHz, AC3, 3/2 (L,C,R,l,r) + LFE ch, ~384.00 kbps avg
Субтитры: None

MI

Общее
Уникальный идентификатор : 179054427482058908326568864616190744461 (0x86B4A0DBF50D29178A80287B902E978D)
Полное имя : Kpep0Ct.Shitom.i.Me40m.2015.O.WEB-DL.1080p.mkv
Формат : Matroska
Версия формата : Version 4 / Version 2
Размер файла : 2,61 Гбайт
Продолжительность : 1 ч. 16 м.
Общий поток : 4871 Кбит/сек
Дата кодирования : UTC 2015-11-15 19:56:10
Программа кодирования : mkvmerge v8.3.0 ('Over the Horizon') 64bit
Библиотека кодирования : libebml v1.3.1 + libmatroska v1.4.2
Видео
Идентификатор : 1
Формат : AVC
Формат/Информация : Advanced Video Codec
Профиль формата : High@L4
Параметр CABAC формата : Да
Параметр ReFrames формата : 5 кадров
Идентификатор кодека : V_MPEG4/ISO/AVC
Продолжительность : 1 ч. 16 м.
Битрейт : 4390 Кбит/сек
Ширина : 1920 пикселей
Высота : 804 пикселя
Соотношение сторон : 2,40:1
Режим частоты кадров : Постоянный
Частота кадров : 24,000 кадра/сек
Цветовое пространство : YUV
Субдискретизация насыщенности : 4:2:0
Битовая глубина : 8 бит
Тип развёртки : Прогрессивная
Бит/(Пиксели*Кадры) : 0.118
Размер потока : 2,35 Гбайт (90%)
Язык : English
Default : Да
Forced : Нет
Цветовой диапазон : Limited
Основные цвета : BT.709
Характеристики трансфера : BT.709
Коэффициенты матрицы : BT.709
Аудио
Идентификатор : 2
Формат : AC-3
Формат/Информация : Audio Coding 3
Расширение режима : CM (complete main)
Параметр Endianness формата : Big
Идентификатор кодека : A_AC3
Продолжительность : 1 ч. 16 м.
Вид битрейта : Постоянный
Битрейт : 384 Кбит/сек
Каналы : 6 каналов
Расположение каналов : Front: L C R, Side: L R, LFE
Частота : 48,0 КГц
Метод сжатия : С потерями
Размер потока : 211 Мбайт (8%)
Язык : Russian
Default : Да
Forced : Нет
Меню
00:00:00.000 : en:Глава 1
00:06:47.000 : en:Глава 2
00:12:59.000 : en:Глава 3
00:18:42.000 : en:Глава 4
00:24:24.000 : en:Глава 5
00:29:57.000 : en:Глава 6
00:35:52.000 : en:Глава 7
00:41:03.000 : en:Глава 8
00:46:30.000 : en:Глава 9
00:51:40.000 : en:Глава 10
00:57:47.000 : en:Глава 11
01:03:44.000 : en:Глава 12
01:08:52.000 : en:Глава 13

Скриншоты


[Цитировать]



Показать сообщения:    

Текущее время: 10-Дек 13:53

Часовой пояс: UTC + 3


Вы не можете начинать темы
Вы не можете отвечать на сообщения
Вы не можете редактировать свои сообщения
Вы не можете удалять свои сообщения
Вы не можете голосовать в опросах
Вы не можете прикреплять файлы к сообщениям
Вы не можете скачивать файлы

!ВНИМАНИЕ!
Сайт не предоставляет электронные версии произведений, а занимается лишь коллекционированием и каталогизацией ссылок, присылаемых и публикуемых на форуме нашими читателями. Если вы являетесь правообладателем какого-либо представленного материала и не желаете, чтобы ссылка на него находилась в нашем каталоге, свяжитесь с нами, и мы незамедлительно удалим ее. Файлы для обмена на трекере предоставлены пользователями сайта, и администрация не несет ответственности за их содержание. Просьба не заливать файлы, защищенные авторскими правами, а также файлы нелегального содержания!