[ Сегодня идет свободное скачивание без начисления Download ]


Статистика раздачи
Нет
 
   
 
Top  
 
 
Информация о фильме
Название: Миссия невыполнима: Племя изгоев
Оригинальное название: Mission: Impossible - Rogue Nation
Год выхода: 2015
Жанр: боевик, триллер, приключения
Режиссер: Кристофер МакКуорри
В ролях: Том Круз, Саймон Пегг, Ребекка Фергюсон, Джереми Реннер, Алек Болдуин, Америка Оливо, Винг Реймз, Шон Харрис, Саймон МакБерни, Гермиона Корфилд
О фильме: Когда ОМН распускают, и Итан Хант остается не у дел, его команда неожиданно сталкивается с разветвленной международной сетью высокопрофессиональных спецагентов — Синдикатом. Это «племя изгоев» одержимо идеей установления нового мирового порядка и планирует серию разрушительных терактов. Итан и компания объединяются с дискредитированным британским агентом Илсой Фауст и приступают к своей самой невыполнимой миссии, понимая, что каждый из них может оказаться на стороне Синдиката.

Выпущено: США / Alibaba Pictures Group, Bad Robot, Skydance Productions, TC Productions
Продолжительность: 02:11:34
Перевод: Дублированный [Чистый звук]
Файл
Формат: MKV
Кодек: AVC
Качество: BDRip 720p
Видео: MPEG-4 AVC/H.264, 1280x536 (2.40:1), 5305 kbps, 23,976 fps
Аудио 1: русский / AC3 / 2.0 / 48 kHz / 256 kbps / 16 bit |Дубляж, Чистый звук|
Аудио 2: английский / AC3 / 5.1 / 48 kHz / 640 kbps / 16 bit
Субтитры: английские (Forced)
Семпл
Сравнение скриншотов WEB-DL 720p vs BDRip 720p

МИ

General
Unique ID : 179057167430539638877567041652481627792 (0x86B527F2F813D0A0932511CF9C589690)
Complete name : H:Mission.Impossible.Rogue.Nation.2015.BDRip.720p.mkv
Format : Matroska
Format version : Version 4 / Version 2
File size : 5.69 GiB
Duration : 2h 11mn
Overall bit rate : 6 194 Kbps
Encoded date : UTC 2015-10-31 14:26:10
Writing application : mkvmerge v8.3.0 ('Over the Horizon') 64bit
Writing library : libebml v1.3.1 + libmatroska v1.4.2
DURATION : 01:53:30.053000000
NUMBER_OF_FRAMES : 23
NUMBER_OF_BYTES : 641
_STATISTICS_WRITING_APP : mkvmerge v8.3.0 ('Over the Horizon') 64bit
_STATISTICS_WRITING_DATE_UT : 2015-10-31 14:26:10
_STATISTICS_TAGS : BPS DURATION NUMBER_OF_FRAMES NUMBER_OF_BYTES
Video
ID : 1
Format : AVC
Format/Info : Advanced Video Codec
Format profile : High@L4.1
Format settings, CABAC : Yes
Format settings, ReFrames : 5 frames
Codec ID : V_MPEG4/ISO/AVC
Duration : 2h 11mn
Bit rate : 5 305 Kbps
Width : 1 280 pixels
Height : 536 pixels
Display aspect ratio : 2.40:1
Frame rate mode : Constant
Frame rate : 23.976 fps
Color space : YUV
Chroma subsampling : 4:2:0
Bit depth : 8 bits
Scan type : Progressive
Bits/(Pixel*Frame) : 0.323
Stream size : 4.76 GiB (84%)
Writing library : x264 core 148 r2638 7599210
Encoding settings : cabac=1 / ref=5 / deblock=1:0:0 / analyse=0x3:0x133 / me=umh / subme=7 / psy=1 / psy_rd=1.00:0.00 / mixed_ref=1 / me_range=16 / chroma_me=1 / trellis=1 / 8x8dct=1 / cqm=0 / deadzone=21,11 / fast_pskip=0 / chroma_qp_offset=-2 / threads=17 / lookahead_threads=2 / sliced_threads=0 / nr=0 / decimate=1 / interlaced=0 / bluray_compat=0 / constrained_intra=0 / bframes=3 / b_pyramid=2 / b_adapt=1 / b_bias=0 / direct=1 / weightb=1 / open_gop=0 / weightp=2 / keyint=250 / keyint_min=23 / scenecut=40 / intra_refresh=0 / rc_lookahead=40 / rc=2pass / mbtree=1 / bitrate=5305 / ratetol=1.0 / qcomp=0.60 / qpmin=0 / qpmax=69 / qpstep=4 / cplxblur=20.0 / qblur=0.5 / ip_ratio=1.40 / aq=1:1.00
Language : English
Default : Yes
Forced : No
DURATION : 02:11:33.732000000
NUMBER_OF_FRAMES : 189260
NUMBER_OF_BYTES : 5225963149
_STATISTICS_WRITING_APP : mkvmerge v8.3.0 ('Over the Horizon') 64bit
_STATISTICS_WRITING_DATE_UT : 2015-10-31 14:26:10
_STATISTICS_TAGS : BPS DURATION NUMBER_OF_FRAMES NUMBER_OF_BYTES
Audio #1
ID : 2
Format : AC-3
Format/Info : Audio Coding 3
Mode extension : CM (complete main)
Format settings, Endianness : Big
Codec ID : A_AC3
Duration : 2h 11mn
Bit rate mode : Constant
Bit rate : 256 Kbps
Channel(s) : 2 channels
Channel positions : Front: L R
Sampling rate : 48.0 KHz
Compression mode : Lossy
Stream size : 241 MiB (4%)
Title : Дубляж, Чистый звук
Language : Russian
Default : Yes
Forced : No
Audio #2
ID : 3
Format : AC-3
Format/Info : Audio Coding 3
Mode extension : CM (complete main)
Format settings, Endianness : Big
Codec ID : A_AC3
Duration : 2h 11mn
Bit rate mode : Constant
Bit rate : 640 Kbps
Channel(s) : 6 channels
Channel positions : Front: L C R, Side: L R, LFE
Sampling rate : 48.0 KHz
Compression mode : Lossy
Stream size : 602 MiB (10%)
Title : Оригинал
Language : English
Default : No
Forced : No
Text
ID : 4
Format : UTF-8
Codec ID : S_TEXT/UTF8
Codec ID/Info : UTF-8 Plain Text
Title : English-Forced
Language : English
Default : No
Forced : No
Menu
00:00:00.000 : en:00:00:00.000
00:09:53.092 : en:00:09:53.092
00:20:45.703 : en:00:20:45.703
00:25:32.072 : en:00:25:32.072
00:32:00.669 : en:00:32:00.669
00:40:03.443 : en:00:40:03.443
00:49:35.556 : en:00:49:35.556
01:01:01.157 : en:01:01:01.157
01:09:51.687 : en:01:09:51.687
01:20:20.858 : en:01:20:20.858
01:29:29.322 : en:01:29:29.322
01:38:32.824 : en:01:38:32.824
01:48:19.410 : en:01:48:19.410
01:57:13.944 : en:01:57:13.944
02:03:02.709 : en:02:03:02.709

Скриншоты

[Цитировать]



Показать сообщения:    

Текущее время: 09-Дек 20:32

Часовой пояс: UTC + 3


Вы не можете начинать темы
Вы не можете отвечать на сообщения
Вы не можете редактировать свои сообщения
Вы не можете удалять свои сообщения
Вы не можете голосовать в опросах
Вы не можете прикреплять файлы к сообщениям
Вы не можете скачивать файлы

!ВНИМАНИЕ!
Сайт не предоставляет электронные версии произведений, а занимается лишь коллекционированием и каталогизацией ссылок, присылаемых и публикуемых на форуме нашими читателями. Если вы являетесь правообладателем какого-либо представленного материала и не желаете, чтобы ссылка на него находилась в нашем каталоге, свяжитесь с нами, и мы незамедлительно удалим ее. Файлы для обмена на трекере предоставлены пользователями сайта, и администрация не несет ответственности за их содержание. Просьба не заливать файлы, защищенные авторскими правами, а также файлы нелегального содержания!