[ Сегодня идет свободное скачивание без начисления Download ]


Статистика раздачи
Нет
 
   
 
Top  
 
 

Информация о фильме
Название: Супер Майк XXL
Оригинальное название: Magic Mike XXL
Год выхода: 2015
Жанр: комедия, музыка, драма
Режиссер: Грегори Джейкобс
В ролях: Ченнинг Татум, Джо Манганьелло, Мэтт Бомер, Кевин Нэш, Эмбер Хёрд Депп, Элизабет Бэнкс, Адам Родригес, Габриэль Иглесиас, Энди МакДауэлл, Джада Пинкетт Смит
О фильме: Прошло три года после того, как Майк на пике своей популярности закончил карьеру стриптизера, а клуб «Короли Тампы» уже почти готов признать свое поражение. Но проделать это в своем стиле: готовясь «зажечь» Мёртл-Бич, они снова разделят сцену с легендарным Супер Майком. Дорога на последнее шоу проходит через Джеконсвилл и Саванну, где Майк и парни повстречают старых знакомых и заведут новых, а также выучат пару неизбитых движений, тряхнув при этом стариной.

Выпущено: Warner Bros.
Продолжительность: 01:55:17
Перевод: Дублированный (лицензия)
Файл
Кодек: x264
Качество: BDRip (источник: Blu-ray Disc)
Видео: 1920x804 (2,40:1), 23.976 fps, 8355 kbps
Аудио #1: AC-3, 6 ch, 640 kbps (Rus)
Аудио #2: AC-3, 6 ch, 640 kbps (Eng)
Субтитры: Русские, Английские
Скачать: сэмпл
Скриншоты

MI

General
Unique ID : 237354912064575063988196856472540551496 (0xB290E4ACA37D3857B12E5215A3D41948)
Complete name : D:Magic.Mike.XXL.2015.BDRip.1080p.Rus.Eng.mkv
Format : Matroska
Format version : Version 2
File size : 7.76 GiB
Duration : 1h 55mn
Overall bit rate : 9 635 Kbps
Movie name : Супер Майк XXL / Magic Mike XXL (2015)
Encoded date : UTC 2015-11-02 21:15:16
Writing application : mkvmerge v5.8.0 ('No Sleep / Pillow') built on Sep 2 2012 15:37:04
Writing library : libebml v1.2.3 + libmatroska v1.3.0
Attachements : cover.png / logfile.log
Video
ID : 1
Format : AVC
Format/Info : Advanced Video Codec
Format profile : High@L4.1
Format settings, CABAC : Yes
Format settings, ReFrames : 5 frames
Codec ID : V_MPEG4/ISO/AVC
Duration : 1h 55mn
Bit rate : 8 355 Kbps
Width : 1 920 pixels
Height : 804 pixels
Display aspect ratio : 2.40:1
Frame rate mode : Constant
Frame rate : 23.976 fps
Color space : YUV
Chroma subsampling : 4:2:0
Bit depth : 8 bits
Scan type : Progressive
Bits/(Pixel*Frame) : 0.226
Stream size : 6.57 GiB (85%)
Title : Супер Майк XXL / Magic Mike XXL (2015)
Writing library : x264 core 148 r2638 7599210
Encoding settings : cabac=1 / ref=5 / deblock=1:-3:-3 / analyse=0x3:0x133 / me=umh / subme=11 / psy=1 / psy_rd=1.00:0.00 / mixed_ref=1 / me_range=24 / chroma_me=1 / trellis=2 / 8x8dct=1 / cqm=0 / deadzone=21,11 / fast_pskip=0 / chroma_qp_offset=-2 / threads=12 / lookahead_threads=3 / sliced_threads=0 / nr=0 / decimate=0 / interlaced=0 / bluray_compat=0 / constrained_intra=0 / bframes=10 / b_pyramid=2 / b_adapt=2 / b_bias=0 / direct=3 / weightb=1 / open_gop=0 / weightp=2 / keyint=240 / keyint_min=23 / scenecut=40 / intra_refresh=0 / rc=2pass / mbtree=0 / bitrate=8355 / ratetol=1.0 / qcomp=0.60 / qpmin=0 / qpmax=69 / qpstep=4 / cplxblur=20.0 / qblur=0.5 / ip_ratio=1.40 / pb_ratio=1.30 / aq=1:1.00
Language : English
Default : Yes
Forced : No
Audio #1
ID : 2
Format : AC-3
Format/Info : Audio Coding 3
Mode extension : CM (complete main)
Format settings, Endianness : Big
Codec ID : A_AC3
Duration : 1h 55mn
Bit rate mode : Constant
Bit rate : 640 Kbps
Channel(s) : 6 channels
Channel positions : Front: L C R, Side: L R, LFE
Sampling rate : 48.0 KHz
Bit depth : 16 bits
Compression mode : Lossy
Stream size : 528 MiB (7%)
Title : Дубляж, Blu-Ray CEE
Language : Russian
Default : Yes
Forced : No
Audio #2
ID : 3
Format : AC-3
Format/Info : Audio Coding 3
Mode extension : CM (complete main)
Format settings, Endianness : Big
Codec ID : A_AC3
Duration : 1h 55mn
Bit rate mode : Constant
Bit rate : 640 Kbps
Channel(s) : 6 channels
Channel positions : Front: L C R, Side: L R, LFE
Sampling rate : 48.0 KHz
Bit depth : 16 bits
Compression mode : Lossy
Stream size : 528 MiB (7%)
Title : English
Language : English
Default : No
Forced : No
Text #1
ID : 4
Format : UTF-8
Codec ID : S_TEXT/UTF8
Codec ID/Info : UTF-8 Plain Text
Title : Russian
Language : Russian
Default : No
Forced : No
Text #2
ID : 5
Format : UTF-8
Codec ID : S_TEXT/UTF8
Codec ID/Info : UTF-8 Plain Text
Title : English
Language : English
Default : No
Forced : No
Menu
00:00:00.000 : :Chapter 01
00:07:13.015 : :Chapter 02
00:09:48.963 : :Chapter 03
00:13:42.154 : :Chapter 04
00:17:40.851 : :Chapter 05
00:26:06.398 : :Chapter 06
00:33:33.553 : :Chapter 07
00:35:46.978 : :Chapter 08
00:40:59.665 : :Chapter 09
00:45:20.718 : :Chapter 10
00:47:46.488 : :Chapter 11
00:49:36.682 : :Chapter 12
00:55:17.188 : :Chapter 13
00:59:24.185 : :Chapter 14
01:03:31.933 : :Chapter 15
01:09:03.597 : :Chapter 16
01:15:04.166 : :Chapter 17
01:20:50.470 : :Chapter 18
01:25:05.975 : :Chapter 19
01:29:29.572 : :Chapter 20
01:31:53.132 : :Chapter 21
01:34:18.778 : :Chapter 22
01:37:09.865 : :Chapter 23
01:40:30.733 : :Chapter 24
01:44:10.244 : :Chapter 25
01:49:02.244 : :Chapter 26
01:51:01.112 : :Chapter 27

x264

x264 [info]: frame I:1060 Avg QP:14.28 size:189478
x264 [info]: frame P:36400 Avg QP:17.31 size: 83605
x264 [info]: frame B:128388 Avg QP:18.25 size: 30964
x264 [info]: consecutive B-frames: 2.1% 2.7% 5.8% 27.4% 17.8% 27.8% 7.1% 6.9% 1.2% 0.3% 0.8%

[Цитировать]

Топик был перенесен из форума Новинки кинопроката в форум Комедия
Henkok



Показать сообщения:    

Текущее время: 11-Дек 05:16

Часовой пояс: UTC + 3


Вы не можете начинать темы
Вы не можете отвечать на сообщения
Вы не можете редактировать свои сообщения
Вы не можете удалять свои сообщения
Вы не можете голосовать в опросах
Вы не можете прикреплять файлы к сообщениям
Вы не можете скачивать файлы

!ВНИМАНИЕ!
Сайт не предоставляет электронные версии произведений, а занимается лишь коллекционированием и каталогизацией ссылок, присылаемых и публикуемых на форуме нашими читателями. Если вы являетесь правообладателем какого-либо представленного материала и не желаете, чтобы ссылка на него находилась в нашем каталоге, свяжитесь с нами, и мы незамедлительно удалим ее. Файлы для обмена на трекере предоставлены пользователями сайта, и администрация не несет ответственности за их содержание. Просьба не заливать файлы, защищенные авторскими правами, а также файлы нелегального содержания!