[ Сегодня идет свободное скачивание без начисления Download ]


Статистика раздачи
Нет
 
   
 
Top  
 
 
Время прощания / Le temps qui reste (2005) DVDRip-AVC Информация о фильме
Название: Время прощания
Оригинальное название: Le temps qui reste
Год выхода: 2005
Жанр: Драма
Режиссер: Франсуа Озон / Francois Ozon
В ролях: Мельвиль Пупо, Жанна Моро, Валерия Бруни Тедески, Даниэль Дюваль, Мари Ривьер и др.
О фильме:
Молодой успешный фотограф узнает, что он смертельно болен. Это известие заставляет его пересмотреть свою жизнь и отношения с близкими ему людьми — молодым любовником, сестрой, с которой они находятся в долгой затяжной ссоре, родителями. Он решается согласиться на странную просьбу незнакомых ему бездетных людей стать биологическим отцом их ребенка.

Страна: Франция
Студия: Fidélité Productions, France 2 Cinéma, StudioCanal
Продолжительность: 01:17:38.000
Перевод: Профессиональный (многоголосый, закадровый) R5
Файл
Кодек: h.264
Качество: DVDRip-AVC
Видео: 712x432 (2.35:1) @ 1021x432, 25.000 fps, AVC, ~1449 Kbps, 0.188 bits/pixel
Звук:
Русский, 48.0 KHz, AC3, 6 ch, 384 Kbps
Французский, 48.0 KHz, AC3, 6 ch, 448 Kbps
Субтитры:
Английские, VobSub
Русские,SRT(UTF-8)

MI

General
Unique ID : 238425762015165434562224564674385259334 (0xB35F21A7387EF136953348B16F9DAB46)
Complete name : I:FilmsVremya_proschaniya.2005.DVDRip-AVC.mkv
Format : Matroska
Format version : Version 4 / Version 2
File size : 1.24 GiB
Duration : 1h 17mn
Overall bit rate : 2 283 Kbps
Encoded date : UTC 2015-11-16 17:25:40
Writing application : mkvmerge v8.5.2 ('Crosses') 64bit
Writing library : libebml v1.3.3 + libmatroska v1.4.4
DURATION : 01:04:08.382000000
NUMBER_OF_FRAMES : 395
NUMBER_OF_BYTES : 33956
_STATISTICS_WRITING_APP : mkvmerge v8.5.2 ('Crosses') 64bit
_STATISTICS_WRITING_DATE_UTC : 2015-11-16 17:25:40
_STATISTICS_TAGS : BPS DURATION NUMBER_OF_FRAMES NUMBER_OF_BYTES
Video
ID : 5
Format : AVC
Format/Info : Advanced Video Codec
Format profile : [email protected]
Format settings, CABAC : Yes
Format settings, ReFrames : 11 frames
Codec ID : V_MPEG4/ISO/AVC
Duration : 1h 17mn
Bit rate : 1 449 Kbps
Width : 712 pixels
Height : 432 pixels
Display aspect ratio : 2.35:1
Original display aspect ratio : 2.35:1
Frame rate mode : Constant
Frame rate : 25.000 fps
Color space : YUV
Chroma subsampling : 4:2:0
Bit depth : 8 bits
Scan type : Progressive
Bits/(Pixel*Frame) : 0.188
Stream size : 781 MiB (62%)
Writing library : x264 core 146 r2538 121396c
Encoding settings : cabac=1 / ref=11 / deblock=1:0:0 / analyse=0x3:0x133 / me=umh / subme=11 / psy=1 / psy_rd=1.10:0.15 / mixed_ref=1 / me_range=48 / chroma_me=1 / trellis=2 / 8x8dct=1 / cqm=0 / deadzone=21,11 / fast_pskip=0 / chroma_qp_offset=-3 / threads=8 / lookahead_threads=1 / sliced_threads=0 / nr=0 / decimate=0 / interlaced=0 / bluray_compat=0 / constrained_intra=0 / bframes=9 / b_pyramid=2 / b_adapt=2 / b_bias=0 / direct=3 / weightb=1 / open_gop=0 / weightp=2 / keyint=250 / keyint_min=25 / scenecut=40 / intra_refresh=0 / rc_lookahead=60 / rc=2pass / mbtree=0 / bitrate=1449 / ratetol=1.0 / qcomp=0.60 / qpmin=0 / qpmax=69 / qpstep=4 / cplxblur=20.0 / qblur=0.5 / vbv_maxrate=40000 / vbv_bufsize=50000 / nal_hrd=none / filler=0 / ip_ratio=1.40 / pb_ratio=1.30 / aq=1:1.00
Default : No
Forced : No
Color range : Limited
Matrix coefficients : BT.601
Audio #1
ID : 1
Format : AC-3
Format/Info : Audio Coding 3
Mode extension : CM (complete main)
Format settings, Endianness : Big
Codec ID : A_AC3
Duration : 1h 17mn
Bit rate mode : Constant
Bit rate : 384 Kbps
Channel(s) : 6 channels
Channel positions : Front: L C R, Side: L R, LFE
Sampling rate : 48.0 KHz
Compression mode : Lossy
Stream size : 213 MiB (17%)
Language : Russian
Default : Yes
Forced : No
Audio #2
ID : 2
Format : AC-3
Format/Info : Audio Coding 3
Mode extension : CM (complete main)
Format settings, Endianness : Big
Codec ID : A_AC3
Duration : 1h 17mn
Bit rate mode : Constant
Bit rate : 448 Kbps
Channel(s) : 6 channels
Channel positions : Front: L C R, Side: L R, LFE
Sampling rate : 48.0 KHz
Compression mode : Lossy
Stream size : 249 MiB (20%)
Language : French
Default : No
Forced : No
Text #1
ID : 3
Format : VobSub
Muxing mode : zlib
Codec ID : S_VOBSUB
Codec ID/Info : Picture based subtitle format used on DVDs
Language : English
Default : No
Forced : No
Text #2
ID : 4
Format : UTF-8
Codec ID : S_TEXT/UTF8
Codec ID/Info : UTF-8 Plain Text
Language : Russian
Default : No
Forced : No
Menu
00:00:00.000 : en:Chapter 01
00:08:32.560 : en:Chapter 02
00:18:42.960 : en:Chapter 03
00:27:03.600 : en:Chapter 04
00:37:52.000 : en:Chapter 05
00:45:39.600 : en:Chapter 06
00:54:18.240 : en:Chapter 07
01:01:35.960 : en:Chapter 08
01:08:48.520 : en:Chapter 09
01:14:10.600 : en:Chapter 10
Исходник R2.

Доп. инфо

Исправил прошлую раздачу фильма (удалена) - недокроп слева 2 пикселя.

X264 log 2nd pass

frame I:638 Avg QP:17.19 size: 40303
frame P:21470 Avg QP:19.86 size: 15404
frame B:94342 Avg QP:21.43 size: 5159

Скриншоты

[Цитировать]



Показать сообщения:    

Текущее время: 05-Дек 07:31

Часовой пояс: UTC + 3


Вы не можете начинать темы
Вы не можете отвечать на сообщения
Вы не можете редактировать свои сообщения
Вы не можете удалять свои сообщения
Вы не можете голосовать в опросах
Вы не можете прикреплять файлы к сообщениям
Вы не можете скачивать файлы

!ВНИМАНИЕ!
Сайт не предоставляет электронные версии произведений, а занимается лишь коллекционированием и каталогизацией ссылок, присылаемых и публикуемых на форуме нашими читателями. Если вы являетесь правообладателем какого-либо представленного материала и не желаете, чтобы ссылка на него находилась в нашем каталоге, свяжитесь с нами, и мы незамедлительно удалим ее. Файлы для обмена на трекере предоставлены пользователями сайта, и администрация не несет ответственности за их содержание. Просьба не заливать файлы, защищенные авторскими правами, а также файлы нелегального содержания!