[ Сегодня идет свободное скачивание без начисления Download ]


Статистика раздачи
Нет
 
   
 
Top  
 
 
Михаил Задорнов. Неформат 78. Вещий Олег, Кризис, Коррупция, Капитализм (2015.11.13) WEBRip - Телекомпания: Юмор FM
Жанр: Юмор
Режиссёр: Михаил Задорнов
Описание:
Неформат вернулся! Михаил Задорнов вновь расскажет вам всю правда о самых актуальных событиях в стране и за ее пределами. В этом свежем выпуске Неформата смотрите: рейтинг Путина падает, часы Пескова, УДО Васильевой и многое другое!
Релиз от: svlesin
Продолжительность: ~ 01:55:24
Качество видео: WEBRip
Видео: MPEG4, XviD, 720x400 (16:9), 25.000 fps, 1 800 Kbps (0.250 bit/pixel)
Аудио: AC-3, 44.1 KHz, 2 ch, 192 Kbps, CBR

Mediainfo:

Формат                                   : AVI
Формат/Информация                        : Audio Video Interleave
Размер файла                             : 1,61 Гбайт
Продолжительность                        : 1 ч. 55 м.
Общий поток                              : 1999 Кбит/сек
Программа кодирования                    : TMPGEnc Video Mastering Works 5 Version. 5.0.6.38
Библиотека кодирования                   : TMPGEnc Video Mastering Works 5 Version. 5.0.6.38
Видео
Идентификатор                            : 0
Формат                                   : MPEG-4 Visual
Профиль формата                          : Advanced Simple@L5
Параметр BVOP формата                    : 2
Параметр QPel формата                    : Нет
Параметр GMC формата                     : Без точки перехода
Параметр матрицы формата                 : Default (H.263)
Режим смешивания                         : Сжатый битовый поток
Идентификатор кодека                     : XVID
Идентификатор кодека/Подсказка           : XviD
Продолжительность                        : 1 ч. 55 м.
Битрейт                                  : 1800 Кбит/сек
Ширина                                   : 720 пикселей
Высота                                   : 400 пикселей
Соотношение сторон                       : 16:9
Частота кадров                           : 25,000 кадров/сек
Цветовое пространство                    : YUV
Субдискретизация насыщенности            : 4:2:0
Битовая глубина                          : 8 бит
Тип развёртки                            : Прогрессивная
Метод сжатия                             : С потерями
Бит/(Пиксели*Кадры)                      : 0.250
Размер потока                            : 1,45 Гбайт (90%)
Библиотека кодирования                   : XviD 64
Аудио
Идентификатор                            : 1
Формат                                   : AC-3
Формат/Информация                        : Audio Coding 3
Расширение режима                        : CM (complete main)
Параметр Endianness формата              : Big
Идентификатор кодека                     : 2000
Продолжительность                        : 1 ч. 55 м.
Вид битрейта                             : Постоянный
Битрейт                                  : 192 Кбит/сек
Каналы                                   : 2 канала
Расположение каналов                     : Front: L R
Частота                                  : 44,1 КГц
Битовая глубина                          : 16 бит
Метод сжатия                             : С потерями
Размер потока                            : 158 Мбайт (10%)
Выравнивание                             : Соединение по промежуткам
Продолжительность промежутка             : 160  мс. (4,01 видеокадра)
Время предзагрузки промежутка            : 313  мс.

В выпуске:

В свежем выпуске программы Неформат с Михаилом Задорновым разговор пойдет о фильме "Вещий Олег. Обретенная быль", о разграблении нашей страны продажными чиновниками, а также о новостях из разных уголков мира. Краткое содержание:
1) "Вещий Олег. Обретённая быль"
2) "Шарли Эбдо".
3) Задорные наблюдашки.
4) Владимир Машков.
5) Ситуация с самолётами.
6) У троллей не стоИт...
7) Закрытие авиаполётов.
8) Пенсионерам нечего есть!
9) Спектакль "Римская комедия" - смотреть всем!
10) Опрос на улице.
11) Повышение пенсионного возраста.
12) ИГИЛ.
13) Логотип "Метро" 232 миллиона рублей - распил бюджета.
14) Задорные наблюдашки.
15) 60% наших медиков курят, а на западе 3%
16) Замена брусчатки раз в 3 месяца в Москве - распил бюджета.
17) Чинуши пополняют бюджет грабя народ.
18) Капитализм=каннибализм.
19) Должен быть социализм.
20) Ток-шоу Соловьёва - говорящие головы.
21) Гордон спёкся с женским ток-шоу.
22) Скандал в лёгкой атлетике с допингом 2016 и 2014.
23) Капремонт - отъём бабок у населения.
24) "Вещий Олег" - 540000 просмотров за неделю.
Скриншоты:

[Цитировать]



Показать сообщения:    

Текущее время: 09-Дек 10:48

Часовой пояс: UTC + 3


Вы не можете начинать темы
Вы не можете отвечать на сообщения
Вы не можете редактировать свои сообщения
Вы не можете удалять свои сообщения
Вы не можете голосовать в опросах
Вы не можете прикреплять файлы к сообщениям
Вы не можете скачивать файлы

!ВНИМАНИЕ!
Сайт не предоставляет электронные версии произведений, а занимается лишь коллекционированием и каталогизацией ссылок, присылаемых и публикуемых на форуме нашими читателями. Если вы являетесь правообладателем какого-либо представленного материала и не желаете, чтобы ссылка на него находилась в нашем каталоге, свяжитесь с нами, и мы незамедлительно удалим ее. Файлы для обмена на трекере предоставлены пользователями сайта, и администрация не несет ответственности за их содержание. Просьба не заливать файлы, защищенные авторскими правами, а также файлы нелегального содержания!