[ Сегодня идет свободное скачивание без начисления Download ]


Статистика раздачи
Нет
 
   
 
Top  
 
 
В долине Эла / In the Valley of Elah«Иногда узнать правду легче, чем столкнуться с ней.»
Год выпуска: 2007
Страна: США
Производство: Summit Entertainment
Жанр: триллер, драма, криминал, детектив
Режиссер: Пол Хаггис
В ролях: Томми Ли Джонс, Шарлиз Терон, Джейсон Патрик, Сьюзен Сарандон, Джеймс Франко, Бэрри Корбин, Джош Бролин, Фрэнсис Фишер, Уэс Чэтэм, Джэйк МакЛафлин
Перевод: Профессиональный (полное дублирование) + Оригинал [Внешним файлом]
Субтитры: Русские, Английские (полные отключаемые, HDMV/PGS)
Описание: Фильм повествует об офицере, чей сын-солдат немотивированно отправляется в самоволку вскоре после возвращения в Штаты из Ирака, и исчезает без следа. Местный полицейский детектив берется помочь офицеру в расследовании…

Качество: HDRip-AVC [Исходник: Blu-Ray Remux (1080p)]
Продолжительность: 02:01:17
Формат: MKV
Видео кодек: AVC
Аудио кодек: AC3
Видео: 1280x528 (2,40:1), 23,976 fps, MPEG4 AVC (х264), [email protected] ~4000 kbps avg, 0.247 bit/pixel
Аудио: Русский: 48 kHz, AC-3, 6 ch, ~448.00 kbps avg [Профессиональный (полное дублирование)]
Аудио #2: Английский: 48 kHz, AC-3, 6 ch, ~448.00 kbps avg [Внешним файлом: Оригинал]

Media Info

General
Unique ID                      : 174638623951235601027333746507329725084 (0x83622CEFA0A8EA2DBE066C6ACE96629C)
Complete name                  : D:\фильмы\V.doline.Ela.2007.HDRip.AVC.H.264.mkv
Format                         : Matroska
Format version                 : Version 2
File size                      : 3.83 GiB
Duration                       : 2h 1mn
Overall bit rate               : 4 525 Kbps
Encoded date                   : UTC 2012-12-16 14:06:30
Writing application            : mkvmerge v4.6.0 ('Still Crazy After All These Years') сборка от Mar 10 2011 02:50:32
Writing library                : libebml v1.2.0 + libmatroska v1.1.0
Video
ID                             : 1
Format                         : AVC
Format/Info                    : Advanced Video Codec
Format profile                 : [email protected]
Format settings, CABAC         : Yes
Format settings, ReFrames      : 2 frames
Codec ID                       : V_MPEG4/ISO/AVC
Duration                       : 2h 1mn
Bit rate                       : 4 000 Kbps
Width                          : 1 280 pixels
Height                         : 528 pixels
Display aspect ratio           : 2.40:1
Original display aspect ratio  : 2.40:1
Frame rate mode                : Variable
Frame rate                     : 23.976 fps
Color space                    : YUV
Chroma subsampling             : 4:2:0
Bit depth                      : 8 bits
Scan type                      : Progressive
Bits/(Pixel*Frame)             : 0.247
Stream size                    : 3.38 GiB (88%)
Writing library                : x264 core 129 r2230
Encoding settings              : cabac=1 / ref=2 / deblock=1:-1:-1 / analyse=0x3:0x133 / me=hex / subme=7 / psy=1 / psy_rd=1.00:0.10 / mixed_ref=0 / me_range=16 / chroma_me=1 / trellis=1 / 8x8dct=1 / cqm=0 / deadzone=21,11 / fast_pskip=1 / chroma_qp_offset=-3 / threads=6 / lookahead_threads=1 / sliced_threads=0 / nr=0 / decimate=1 / interlaced=0 / bluray_compat=0 / constrained_intra=0 / bframes=3 / b_pyramid=0 / b_adapt=1 / b_bias=0 / direct=3 / weightb=1 / open_gop=0 / weightp=2 / keyint=230 / keyint_min=23 / scenecut=40 / intra_refresh=0 / rc_lookahead=40 / rc=2pass / mbtree=1 / bitrate=4000 / ratetol=1.0 / qcomp=0.60 / qpmin=10 / qpmax=69 / qpstep=4 / cplxblur=20.0 / qblur=0.5 / vbv_maxrate=24000 / vbv_bufsize=24000 / nal_hrd=none / ip_ratio=1.40 / aq=1:1.00
Language                       : English
Default                        : Yes
Forced                         : No
Audio
ID                             : 2
Format                         : AC-3
Format/Info                    : Audio Coding 3
Mode extension                 : CM (complete main)
Codec ID                       : A_AC3
Duration                       : 2h 1mn
Bit rate mode                  : Constant
Bit rate                       : 448 Kbps
Channel(s)                     : 6 channels
Channel positions              : Front: L C R, Side: L R, LFE
Sampling rate                  : 48.0 KHz
Bit depth                      : 16 bits
Compression mode               : Lossy
Stream size                    : 389 MiB (10%)
Title                          : DUB
Language                       : Russian
Default                        : Yes
Forced                         : No
Text #1
ID                             : 3
Format                         : PGS
Codec ID                       : S_HDMV/PGS
Codec ID/Info                  : The same subtitle format used on BDs/HD-DVDs
Language                       : Russian
Default                        : Yes
Forced                         : No
Text #2
ID                             : 4
Format                         : PGS
Codec ID                       : S_HDMV/PGS
Codec ID/Info                  : The same subtitle format used on BDs/HD-DVDs
Language                       : English
Default                        : No
Forced                         : No
Text #3
ID                             : 5
Format                         : PGS
Codec ID                       : S_HDMV/PGS
Codec ID/Info                  : The same subtitle format used on BDs/HD-DVDs
Language                       : English
Default                        : No
Forced                         : No

Скриншоты

[Цитировать]



Показать сообщения:    

Текущее время: 04-Дек 13:21

Часовой пояс: UTC + 3


Вы не можете начинать темы
Вы не можете отвечать на сообщения
Вы не можете редактировать свои сообщения
Вы не можете удалять свои сообщения
Вы не можете голосовать в опросах
Вы не можете прикреплять файлы к сообщениям
Вы не можете скачивать файлы

!ВНИМАНИЕ!
Сайт не предоставляет электронные версии произведений, а занимается лишь коллекционированием и каталогизацией ссылок, присылаемых и публикуемых на форуме нашими читателями. Если вы являетесь правообладателем какого-либо представленного материала и не желаете, чтобы ссылка на него находилась в нашем каталоге, свяжитесь с нами, и мы незамедлительно удалим ее. Файлы для обмена на трекере предоставлены пользователями сайта, и администрация не несет ответственности за их содержание. Просьба не заливать файлы, защищенные авторскими правами, а также файлы нелегального содержания!