[ Сегодня идет свободное скачивание без начисления Download ]


Статистика раздачи
Нет
 
   
 
Top  
 
 
Месть нерожденному / À l'intérieur (2007) BDRip 720p Информация о фильме
Название: Месть нерожденному
Оригинальное название: À l'intérieur
Год выхода: 2007
Жанр: ужасы, триллер
Режиссер: Александр Бустильо, Жюльен Мори
В ролях: Элисон Паради, Жан-Баптист Табурен, Клод Люле, Доминик Фрот, Натали Руссел, Франсуа-Режи Маршассон, Беатрис Даль, Хайэм Зейтун, Тахар Рахим, Эммануэль Гез
О фильме:
Став виновницей автомобильной аварии, Сара потеряла мужа. Теперь вся ее жизнь посвящена ребенку, которого она скоро должна родить. Однако, каждый раз засыпая, женщина погружается в кошмар, который в скором времени станет для нее реальностью, но гораздо более страшной…

Страна: Франция
Студия: La Fabrique de Films, BR Films, Canal+
Продолжительность: 01:18:54
Перевод: Профессиональный (двухголосый закадровый)
Файл
Кодек: AVC
Качество: BDRip 720p
Видео: 1280x680, 4847 kbps, 25 fps, 0,223 Bits/(Pixel*Frame)
Звук: AC3, 48 kHz, 6 ch, 384 kbps
Субтитры: русские, украинские, французские, английские

MI

General
Unique ID : 203479600984310529885164432355455560880 (0x9914BEE39FB7A31A9887079693D66CB0)
Complete name : D:A.L.Interieur.2007.BDRip720p_by_Bathory.mkv
Format : Matroska
Format version : Version 4 / Version 2
File size : 2.88 GiB
Duration : 1h 18mn
Overall bit rate : 5 229 Kbps
Movie name : À l'intérieur
Encoded date : UTC 2015-11-16 04:12:30
Writing application : mkvmerge v8.5.2 ('Crosses') 64bit
Writing library : libebml v1.3.3 + libmatroska v1.4.4
DURATION : 01:12:10.000000000
NUMBER_OF_FRAMES : 412
NUMBER_OF_BYTES : 12730
_STATISTICS_WRITING_APP : mkvmerge v8.5.2 ('Crosses') 64bit
_STATISTICS_WRITING_DATE_UTC : 2015-11-16 04:12:30
_STATISTICS_TAGS : BPS DURATION NUMBER_OF_FRAMES NUMBER_OF_BYTES
Video
ID : 1
Format : AVC
Format/Info : Advanced Video Codec
Format profile : High@L4.1
Format settings, CABAC : Yes
Format settings, ReFrames : 9 frames
Codec ID : V_MPEG4/ISO/AVC
Duration : 1h 18mn
Bit rate : 4 847 Kbps
Width : 1 280 pixels
Height : 680 pixels
Display aspect ratio : 1.882
Frame rate mode : Constant
Frame rate : 25.000 fps
Color space : YUV
Chroma subsampling : 4:2:0
Bit depth : 8 bits
Scan type : Progressive
Bits/(Pixel*Frame) : 0.223
Stream size : 2.61 GiB (91%)
Writing library : x264 core 148 r2638 7599210
Encoding settings : cabac=1 / ref=9 / deblock=1:-3:-3 / analyse=0x3:0x133 / me=umh / subme=11 / psy=1 / psy_rd=1.00:0.00 / mixed_ref=1 / me_range=32 / chroma_me=1 / trellis=2 / 8x8dct=1 / cqm=0 / deadzone=21,11 / fast_pskip=0 / chroma_qp_offset=-2 / threads=12 / lookahead_threads=3 / sliced_threads=0 / nr=0 / decimate=1 / interlaced=0 / bluray_compat=0 / constrained_intra=0 / bframes=12 / b_pyramid=2 / b_adapt=2 / b_bias=0 / direct=3 / weightb=1 / open_gop=0 / weightp=2 / keyint=250 / keyint_min=25 / scenecut=40 / intra_refresh=0 / rc_lookahead=60 / rc=2pass / mbtree=1 / bitrate=4847 / ratetol=1.0 / qcomp=0.60 / qpmin=0 / qpmax=69 / qpstep=4 / cplxblur=20.0 / qblur=0.5 / vbv_maxrate=62500 / vbv_bufsize=78125 / nal_hrd=none / filler=0 / ip_ratio=1.40 / aq=1:1.00
Default : Yes
Forced : No
Audio
ID : 2
Format : AC-3
Format/Info : Audio Coding 3
Mode extension : CM (complete main)
Format settings, Endianness : Big
Codec ID : A_AC3
Duration : 1h 18mn
Bit rate mode : Constant
Bit rate : 384 Kbps
Channel(s) : 6 channels
Channel positions : Front: L C R, Side: L R, LFE
Sampling rate : 48.0 KHz
Bit depth : 16 bits
Compression mode : Lossy
Stream size : 217 MiB (7%)
Title : DVO AC3 5.1 384 kbps
Language : Russian
Default : No
Forced : No
Text #1
ID : 3
Format : UTF-8
Codec ID : S_TEXT/UTF8
Codec ID/Info : UTF-8 Plain Text
Language : Russian
Default : No
Forced : No
Text #2
ID : 4
Format : UTF-8
Codec ID : S_TEXT/UTF8
Codec ID/Info : UTF-8 Plain Text
Language : Ukrainian
Default : No
Forced : No
Text #3
ID : 5
Format : UTF-8
Codec ID : S_TEXT/UTF8
Codec ID/Info : UTF-8 Plain Text
Language : French
Default : No
Forced : No
Text #4
ID : 6
Format : UTF-8
Codec ID : S_TEXT/UTF8
Codec ID/Info : UTF-8 Plain Text
Language : English
Default : No
Forced : No
Menu
00:00:00.000 : en:00:00:00.000
00:05:02.400 : en:00:05:02.400
00:11:20.280 : en:00:11:20.280
00:15:00.000 : en:00:15:00.000
00:21:16.000 : en:00:21:16.000
00:26:37.000 : en:00:26:37.000
00:31:52.000 : en:00:31:52.000
00:36:51.000 : en:00:36:51.000
00:40:57.640 : en:00:40:57.640
00:45:56.480 : en:00:45:56.480
00:51:07.000 : en:00:51:07.000
01:01:45.000 : en:01:01:45.000
01:03:20.000 : en:01:03:20.000
01:06:40.480 : en:01:06:40.480
01:10:12.000 : en:01:10:12.000
01:15:15.000 : en:01:15:15.000

Скриншоты

[Цитировать]



Показать сообщения:    

Текущее время: 09-Дек 01:09

Часовой пояс: UTC + 3


Вы не можете начинать темы
Вы не можете отвечать на сообщения
Вы не можете редактировать свои сообщения
Вы не можете удалять свои сообщения
Вы не можете голосовать в опросах
Вы не можете прикреплять файлы к сообщениям
Вы не можете скачивать файлы

!ВНИМАНИЕ!
Сайт не предоставляет электронные версии произведений, а занимается лишь коллекционированием и каталогизацией ссылок, присылаемых и публикуемых на форуме нашими читателями. Если вы являетесь правообладателем какого-либо представленного материала и не желаете, чтобы ссылка на него находилась в нашем каталоге, свяжитесь с нами, и мы незамедлительно удалим ее. Файлы для обмена на трекере предоставлены пользователями сайта, и администрация не несет ответственности за их содержание. Просьба не заливать файлы, защищенные авторскими правами, а также файлы нелегального содержания!