[ Сегодня идет свободное скачивание без начисления Download ]


Статистика раздачи
Нет
 
   
 
Top  
 
 
Белоснежка и Охотник 2 / The Huntsman (2016) WEBRip - Производство: США / Prime Focus World, Roth Films, Universal Pictures
Жанр: Фэнтези, Боевик, Приключения
Режиссер: Седрик Николя-Троян
Актеры: Крис Хемсворт, Джессика Честейн, Эмили Блант, Шарлиз Терон, Сэм Клафлин, Шеридан Смит, Софи Куксон, Колин Морган, Ник Фрост, Роб Брайдон
Описание:
Когда любовь уходит, сердце прекрасной девы обращается в лед.
И даже сотни королевств не смогут сдержать поступь ее несметного воинства. Лишь Охотник не ведает страха. Сквозь проклятый лес он идет на встречу своей судьбе.
Дата мировой премьеры: 20 апреля 2016
Дата премьеры в России: 21 апреля 2016, «UPI»
Продолжительность: 00:00:15
Качество видео: WEBRip
Перевод: Дублированный
Видео: ProRes, 1920x1080 (1888x1062), 23.976 fps, 128 Mbps (2.669 bit/pixel)
Аудио: PCM, 48.0 KHz, 2 ch, 2 304 Kbps, CBR (English)

Mediainfo:

General
Complete name               : D:\HUNT_TEASER_DUB_1080p.mov
Format                      : MPEG-4
Format profile              : QuickTime
Codec ID                    : qt
File size                   : 234 MiB
Duration                    : 15s 15ms
Overall bit rate mode       : Variable
Overall bit rate            : 131 Mbps
Encoded date                : UTC 2015-11-16 18:25:04
Tagged date                 : UTC 2015-11-16 18:25:13
Writing library             : Apple QuickTime
Media/UUID                  : 8629FB88-07A1-4822-8B6E-C5367AED3E6A
Video
ID                          : 1
Format                      : ProRes
Format version              : Version 0
Format profile              : 422 HQ
Codec ID                    : apch
Duration                    : 15s 15ms
Bit rate mode               : Variable
Bit rate                    : 128 Mbps
Width                       : 1 920 pixels
Clean aperture width        : 1 888 pixels
Height                      : 1 080 pixels
Clean aperture height       : 1 062 pixels
Display aspect ratio        : 16:9
Clean aperture display aspe : 16:9
Frame rate mode             : Constant
Frame rate                  : 23.976 fps
Color space                 : YUV
Chroma subsampling          : 4:2:2
Scan type                   : Progressive
Bits/(Pixel*Frame)          : 2.581
Stream size                 : 230 MiB (98%)
Writing library             : Apple
Language                    : English
Encoded date                : UTC 2015-11-16 18:25:04
Tagged date                 : UTC 2015-11-16 18:25:13
Color primaries             : BT.709
Transfer characteristics    : BT.709
Matrix coefficients         : BT.709
Audio
ID                          : 2
Format                      : PCM
Format settings, Endianness : Little
Format settings, Sign       : Unsigned
Codec ID                    : in24
Duration                    : 15s 15ms
Bit rate mode               : Constant
Bit rate                    : 2 304 Kbps
Channel(s)                  : 2 channels
Channel positions           : Front: L R
Sampling rate               : 48.0 KHz
Bit depth                   : 24 bits
Stream size                 : 4.12 MiB (2%)
Language                    : English
Encoded date                : UTC 2015-11-16 18:25:04
Tagged date                 : UTC 2015-11-16 18:25:13
Other
ID                          : 3
Type                        : Time code
Format                      : QuickTime TC
Duration                    : 15s 15ms
Time code of first frame    : 10:00:00:00
Time code, striped          : Yes
Language                    : English
Encoded date                : UTC 2015-11-16 18:25:13
Tagged date                 : UTC 2015-11-16 18:25:13
Скриншоты:

[Цитировать]



Показать сообщения:    

Текущее время: 06-Дек 21:00

Часовой пояс: UTC + 3


Вы не можете начинать темы
Вы не можете отвечать на сообщения
Вы не можете редактировать свои сообщения
Вы не можете удалять свои сообщения
Вы не можете голосовать в опросах
Вы не можете прикреплять файлы к сообщениям
Вы не можете скачивать файлы

!ВНИМАНИЕ!
Сайт не предоставляет электронные версии произведений, а занимается лишь коллекционированием и каталогизацией ссылок, присылаемых и публикуемых на форуме нашими читателями. Если вы являетесь правообладателем какого-либо представленного материала и не желаете, чтобы ссылка на него находилась в нашем каталоге, свяжитесь с нами, и мы незамедлительно удалим ее. Файлы для обмена на трекере предоставлены пользователями сайта, и администрация не несет ответственности за их содержание. Просьба не заливать файлы, защищенные авторскими правами, а также файлы нелегального содержания!