[ Сегодня идет свободное скачивание без начисления Download ]


Статистика раздачи
Нет
 
   
 
Top  
 
 
Другой мир / Another World (2015) WEB-DL [H.264/720p-LQ] - Производство: Израиль
Жанр: Ужасы, Фантастика, Боевик
Режиссер: Эйтан Реувин
Актеры: Зэк Коэн, Сюзанна Гшвендтнер, Карл МакКристал
Описание:
В пост-апокалиптическом будущем, во время создания биологического оружия, что-то пошло не так, и четырем выжившим приходится защищать себя от «зараженных» — бессмысленных убийц. Они борются, чтобы выжить и понять, что же на самом деле произошло.
Дата мировой премьеры: 10 октября 2015
Продолжительность: 01:39:53
Качество видео: WEB-DL
Перевод: Двуголосый закадровый, любительский
Озвучка / Автор перевода: Ворон и Ох! Студия
Вид субтитров: Отсутствуют
Видео: AVC/H.264, 1280x690, ~3844 Кбит/с
Аудио 1: AC3, 2 ch, 192 Кбит/с, CBR - Русский
Аудио 2: AC3, 6 ch, 384 Кбит/с, CBR - Английский
Семпл: Скачать

Mediainfo:

General
Unique ID                      : 222211348010398252887993193958805522764 (0xA72C595245133BFB99759F4332A6C94C)
Complete name                  : D:\Downloading\Another World.2015.720p.WEB-DL.x264.mkv
Format                         : Matroska
Format version                 : Version 4 / Version 2
File size                      : 3.15 GiB
Duration                       : 1h 39mn
Overall bit rate               : 4 510 Kbps
Encoded date                   : UTC 2015-11-16 16:07:32
Writing application            : mkvmerge v6.9.1 ('Blue Panther') 64bit built on Apr 18 2014 18:23:38
Writing library                : libebml v1.3.0 + libmatroska v1.4.1
Video
ID                             : 1
Format                         : AVC
Format/Info                    : Advanced Video Codec
Format profile                 : [email protected]
Format settings, CABAC         : No
Format settings, ReFrames      : 2 frames
Codec ID                       : V_MPEG4/ISO/AVC
Duration                       : 1h 39mn
Bit rate                       : 3 844 Kbps
Width                          : 1 280 pixels
Height                         : 690 pixels
Display aspect ratio           : 1.85:1
Frame rate mode                : Constant
Frame rate                     : 24.000 fps
Color space                    : YUV
Chroma subsampling             : 4:2:0
Bit depth                      : 8 bits
Scan type                      : Progressive
Bits/(Pixel*Frame)             : 0.181
Stream size                    : 2.68 GiB (85%)
Language                       : English
Default                        : Yes
Forced                         : No
Color range                    : Limited
Color primaries                : BT.709
Transfer characteristics       : BT.709
Matrix coefficients            : BT.709
Audio #1
ID                             : 2
Format                         : AC-3
Format/Info                    : Audio Coding 3
Mode extension                 : CM (complete main)
Format settings, Endianness    : Big
Codec ID                       : A_AC3
Duration                       : 1h 39mn
Bit rate mode                  : Constant
Bit rate                       : 192 Kbps
Channel(s)                     : 2 channels
Channel positions              : Front: L R
Sampling rate                  : 48.0 KHz
Compression mode               : Lossy
Stream size                    : 137 MiB (4%)
Title                          : AVO_Ворон
Language                       : Russian
Default                        : Yes
Forced                         : No
Audio #2
ID                             : 3
Format                         : AC-3
Format/Info                    : Audio Coding 3
Mode extension                 : CM (complete main)
Format settings, Endianness    : Big
Codec ID                       : A_AC3
Duration                       : 1h 39mn
Bit rate mode                  : Constant
Bit rate                       : 384 Kbps
Channel(s)                     : 6 channels
Channel positions              : Front: L C R, Side: L R, LFE
Sampling rate                  : 48.0 KHz
Compression mode               : Lossy
Stream size                    : 274 MiB (9%)
Title                          : original
Language                       : English
Default                        : No
Forced                         : No
Menu
00:00:00.000                   : en:Chapter 1
00:33:11.000                   : en:Chapter 2
01:04:57.000                   : en:Chapter 3
01:36:16.000                   : en:Chapter 4
Скриншоты:

[Цитировать]



Показать сообщения:    

Текущее время: 04-Дек 04:57

Часовой пояс: UTC + 3


Вы не можете начинать темы
Вы не можете отвечать на сообщения
Вы не можете редактировать свои сообщения
Вы не можете удалять свои сообщения
Вы не можете голосовать в опросах
Вы не можете прикреплять файлы к сообщениям
Вы не можете скачивать файлы

!ВНИМАНИЕ!
Сайт не предоставляет электронные версии произведений, а занимается лишь коллекционированием и каталогизацией ссылок, присылаемых и публикуемых на форуме нашими читателями. Если вы являетесь правообладателем какого-либо представленного материала и не желаете, чтобы ссылка на него находилась в нашем каталоге, свяжитесь с нами, и мы незамедлительно удалим ее. Файлы для обмена на трекере предоставлены пользователями сайта, и администрация не несет ответственности за их содержание. Просьба не заливать файлы, защищенные авторскими правами, а также файлы нелегального содержания!