[ Сегодня идет свободное скачивание без начисления Download ]


Статистика раздачи
Скачал: [ 1 ]
 
   
 
Top  
 
 
1408 / 1408 (2007) BDRip [720p] [Directors Cut]
[hand made 60fps]
- Производство: США
Жанр: Ужасы, Детектив
Режиссер: Микаэль Хофстрём
Актеры: Джон Кьюсак, Сэмюэл Л. Джексон, Мэри МакКормак, Тони Шэлуб, Пол Бирчард, Марго Лейкестер, Уолтер Льюис, Эрик Мейерс, Дэвид Николсон, Холли Хэйес
Описание фильма:
Известный писатель Майк Энслин, сочиняющий свои романы в жанре «ужасы», пишет очередную книгу о необычных явлениях и полтергейсте в отелях. Не верящий в существование загробной жизни, Энслин решает поселиться в печально известном номере 1408 гостиницы «Дельфин», который пустует многие годы: по слухам, там обитают привидения. Невзирая на предупреждения старшего менеджера мистера Джеральда Олина о грозящей опасности, упрямец настаивает на своем, даже не предполагая, каким кошмаром обернется предстоящая ночь…

Продолжительность: 01:52:26
Качество видео: BDRip 720p Исходник: Blu-ray
Перевод: Профессиональный (дублированный)
Язык субтитров: Русские, английские
Навигация по главам: Есть
Кодек: MPEG4/ISO/AVC H.264
Формат: MKV
Видео: 1280 x 534 (2.397) | 59.940 fps | 9.6 Мбит/сек
Аудио: AC3 | 5.1 | 48 kHz | 384 kbps | 16 bit | Дублированный + DVO на расширенные места |

Mediainfo:

Видео
Идентификатор : 1
Формат : AVC
Формат/Информация : Advanced Video Codec
Профиль формата : [email protected]
Параметр CABAC формата : Да
Параметр ReFrames формата : 3 кадра
Параметр GOP формата : M=3, N=59
Идентификатор кодека : V_MPEG4/ISO/AVC
Продолжительность : 1 ч. 52 м.
Вид битрейта : Переменный
Битрейт : 9658 Кбит/сек
Максимальный битрейт : 10000 Кбит/сек
Ширина : 1280 пикселей
Высота : 534 пикселя
Соотношение сторон : 2,40:1
Режим частоты кадров : Постоянный
Частота кадров : 59,880 кадров/сек
Частота кадров в оригинале : 59,940 кадров/сек
Стандарт вещания : PAL
Цветовое пространство : YUV
Субдискретизация насыщенности : 4:2:0
Битовая глубина : 8 бит
Тип развёртки : Прогрессивная
Бит/(Пиксели*Кадры) : 0.236
Размер потока : 7,59 Гбайт (94%)
Заголовок : www.60-fps.org
Язык : English
Default : Да
Forced : Нет
Основные цвета : BT.601 NTSC
Характеристики трансфера : BT.601
Коэффициенты матрицы : BT.601
colour_range : Limited
Аудио
Идентификатор : 2
Формат : AC-3
Формат/Информация : Audio Coding 3
Расширение режима : CM (complete main)
Параметр Endianness формата : Big
Идентификатор кодека : A_AC3
Продолжительность : 1 ч. 52 м.
Вид битрейта : Постоянный
Битрейт : 384 Кбит/сек
Каналы : 6 каналов
Расположение каналов : Front: L C R, Side: L R, LFE
Частота : 48,0 КГц
Битовая глубина : 16 бит
Метод сжатия : С потерями
Размер потока : 309 Мбайт (4%)
Заголовок : DUB
Язык : Russian
Default : Да
Forced : Да
Текст #1
Идентификатор : 3
Формат : UTF-8
Идентификатор кодека : S_TEXT/UTF8
Идентификатор кодека/Информация : UTF-8 Plain Text
Заголовок : Full
Язык : Russian
Default : Нет
Forced : Нет
Текст #2
Идентификатор : 4
Формат : UTF-8
Идентификатор кодека : S_TEXT/UTF8
Идентификатор кодека/Информация : UTF-8 Plain Text
Заголовок : Full
Язык : English
Default : Нет
Forced : Нет
Меню
00:00:00.000 : en:0:00:00.000
00:04:49.789 : en:0:04:49.789
00:09:58.014 : en:0:09:58.014
00:14:14.186 : en:0:14:14.186
00:25:47.671 : en:0:25:47.671
00:31:10.827 : en:0:31:10.827
00:36:01.826 : en:0:36:01.826
00:39:13.517 : en:0:39:13.517
00:44:21.867 : en:0:44:21.867
00:50:08.547 : en:0:50:08.547
00:56:10.992 : en:0:56:10.992
01:00:28.458 : en:1:00:28.458
01:04:58.102 : en:1:04:58.102
01:09:50.102 : en:1:09:50.102
01:18:02.010 : en:1:18:02.010
01:25:42.595 : en:1:25:42.595
01:31:42.246 : en:1:31:42.246
01:36:19.356 : en:1:36:19.356
01:42:19.216 : en:1:42:19.216
01:46:33.387 : en:1:46:33.387
Скриншоты:

[Цитировать]



Показать сообщения:    

Текущее время: 04-Дек 06:53

Часовой пояс: UTC + 3


Вы не можете начинать темы
Вы не можете отвечать на сообщения
Вы не можете редактировать свои сообщения
Вы не можете удалять свои сообщения
Вы не можете голосовать в опросах
Вы не можете прикреплять файлы к сообщениям
Вы не можете скачивать файлы

!ВНИМАНИЕ!
Сайт не предоставляет электронные версии произведений, а занимается лишь коллекционированием и каталогизацией ссылок, присылаемых и публикуемых на форуме нашими читателями. Если вы являетесь правообладателем какого-либо представленного материала и не желаете, чтобы ссылка на него находилась в нашем каталоге, свяжитесь с нами, и мы незамедлительно удалим ее. Файлы для обмена на трекере предоставлены пользователями сайта, и администрация не несет ответственности за их содержание. Просьба не заливать файлы, защищенные авторскими правами, а также файлы нелегального содержания!