[ Сегодня идет свободное скачивание без начисления Download ]


Статистика раздачи
Нет
 
   
 
Top  
 
 
Фантастическая четверка / Fantastic Four (2015) BDRip [H.264/720p]
[hand made 60fps] [Line]
«Всё изменится»- Производство: США, Германия, Великобритания, Канада / 20th Century Fox Film Corporation, Constantin Film, Marvel Entertainment
Жанр: фантастика, боевик, приключения
Режиссер: Джош Транк
Продюсер: Грегори Гудман, Саймон Кинберг, Роберт Кульцер
Актеры: Майлз Теллер, Майкл Б. Джордан, Кейт Мара, Джейми Белл, Тоби Кеббелл, Рег Э. Кэти, Тим Блейк Нельсон, Джошуа Монтес, Дэн Кастелланета, Оуэн Джадж
Описание:
История о четырех молодых астронавтах, которые отважились на авантюрное путешествие в параллельное измерение для исследования аномальной волны космической энергии. Вернувшись из путешествия, они обнаружили у себя суперспособности, которые навсегда изменили их жизни…

Рейтинг MPAA: PG-13 - детям до 13 лет просмотр не желателен
Дата мировой премьеры: 5 августа 2015
Дата российской премьеры: 20 августа 2015, «Двадцатый Век Фокс СНГ»
Продолжительность: 01:39:58
Качество: BDRip 720p
Перевод: Профессиональный (полное дублирование) (чистый звук)
Субтитры: Английские (вшитые отключаемые)
Видео: 1280 x 534 (2.397) | AVC/H.264 | 59.940 fps | 10.0 Мбит/сек
Аудио 1: AC3 | 5.1 | 48 kHz | 384 kbps | 16 bit | Дубляж (Центр с Line)
Аудио 2: AC3 | 2.0 | 48 kHz | 192 kbps | 16 bit | Дубляж (Line)
Аудио 3: AC3 | 5.1 | 48 kHz | 640 kbps | 16 bit | ENG

MediaInfo:

Видео
Идентификатор : 1
Формат : AVC
Формат/Информация : Advanced Video Codec
Профиль формата : [email protected]
Параметр CABAC формата : Да
Параметр ReFrames формата : 3 кадра
Идентификатор кодека : V_MPEG4/ISO/AVC
Продолжительность : 1 ч. 39 м.
Вид битрейта : Переменный
Битрейт : 9626 Кбит/сек
Максимальный битрейт : 10000 Кбит/сек
Ширина : 1280 пикселей
Высота : 534 пикселя
Соотношение сторон : 2,40:1
Режим частоты кадров : Постоянный
Частота кадров : 59,880 кадров/сек
Частота кадров в оригинале : 59,940 кадров/сек
Стандарт вещания : PAL
Цветовое пространство : YUV
Субдискретизация насыщенности : 4:2:0
Битовая глубина : 8 бит
Тип развёртки : Прогрессивная
Бит/(Пиксели*Кадры) : 0.235
Размер потока : 6,72 Гбайт (87%)
Заголовок : www.60-fps.org
Язык : English
Default : Да
Forced : Нет
Основные цвета : BT.601 NTSC
Характеристики трансфера : BT.601
Коэффициенты матрицы : BT.601
colour_range : Limited
Аудио #1
Идентификатор : 2
Формат : AC-3
Формат/Информация : Audio Coding 3
Расширение режима : CM (complete main)
Параметр Endianness формата : Big
Идентификатор кодека : A_AC3
Продолжительность : 1 ч. 39 м.
Вид битрейта : Постоянный
Битрейт : 384 Кбит/сек
Каналы : 6 каналов
Расположение каналов : Front: L C R, Side: L R, LFE
Частота : 48,0 КГц
Битовая глубина : 16 бит
Метод сжатия : С потерями
Размер потока : 275 Мбайт (3%)
Заголовок : Дубляж (Центр с Line) 5.1
Язык : Russian
Default : Да
Forced : Да
Аудио #2
Идентификатор : 3
Формат : AC-3
Формат/Информация : Audio Coding 3
Расширение режима : CM (complete main)
Параметр Endianness формата : Big
Идентификатор кодека : A_AC3
Продолжительность : 1 ч. 39 м.
Вид битрейта : Постоянный
Битрейт : 192 Кбит/сек
Каналы : 2 канала
Расположение каналов : Front: L R
Частота : 48,0 КГц
Битовая глубина : 16 бит
Метод сжатия : С потерями
Размер потока : 137 Мбайт (2%)
Заголовок : Дубляж (Чистый звук) 2.0
Язык : Russian
Default : Нет
Forced : Нет
Аудио #3
Идентификатор : 4
Формат : AC-3
Формат/Информация : Audio Coding 3
Расширение режима : CM (complete main)
Параметр Endianness формата : Big
Идентификатор кодека : A_AC3
Продолжительность : 1 ч. 39 м.
Вид битрейта : Постоянный
Битрейт : 640 Кбит/сек
Каналы : 6 каналов
Расположение каналов : Front: L C R, Side: L R, LFE
Частота : 48,0 КГц
Битовая глубина : 16 бит
Метод сжатия : С потерями
Размер потока : 458 Мбайт (6%)
Заголовок : eng
Язык : English
Default : Нет
Forced : Нет
Текст #1
Идентификатор : 5
Формат : UTF-8
Идентификатор кодека : S_TEXT/UTF8
Идентификатор кодека/Информация : UTF-8 Plain Text
Заголовок : Force
Язык : English
Default : Нет
Forced : Нет
Текст #2
Идентификатор : 6
Формат : UTF-8
Идентификатор кодека : S_TEXT/UTF8
Идентификатор кодека/Информация : UTF-8 Plain Text
Заголовок : Full
Язык : English
Default : Нет
Forced : Нет
Меню
00:00:00.000 : en:Chapter 01
00:02:30.024 : en:Chapter 02
00:07:22.608 : en:Chapter 03
00:11:00.159 : en:Chapter 04
00:14:59.523 : en:Chapter 05
00:17:57.785 : en:Chapter 06
00:22:03.322 : en:Chapter 07
00:24:44.483 : en:Chapter 08
00:27:49.876 : en:Chapter 09
00:30:19.776 : en:Chapter 10
00:34:56.010 : en:Chapter 11
00:38:16.377 : en:Chapter 12
00:43:10.087 : en:Chapter 13
00:48:16.059 : en:Chapter 14
00:51:35.300 : en:Chapter 15
00:54:27.055 : en:Chapter 16
00:57:18.101 : en:Chapter 17
01:00:27.832 : en:Chapter 18
01:04:34.912 : en:Chapter 19
01:08:04.497 : en:Chapter 20
01:12:08.282 : en:Chapter 21
01:15:09.963 : en:Chapter 22
01:19:10.162 : en:Chapter 23
01:22:16.514 : en:Chapter 24
01:24:49.542 : en:Chapter 25
01:27:01.341 : en:Chapter 26
01:30:49.569 : en:Chapter 27
01:33:00.449 : en:Chapter 28
Скриншоты:

[Цитировать]



Показать сообщения:    

Текущее время: 06-Дек 05:55

Часовой пояс: UTC + 3


Вы не можете начинать темы
Вы не можете отвечать на сообщения
Вы не можете редактировать свои сообщения
Вы не можете удалять свои сообщения
Вы не можете голосовать в опросах
Вы не можете прикреплять файлы к сообщениям
Вы не можете скачивать файлы

!ВНИМАНИЕ!
Сайт не предоставляет электронные версии произведений, а занимается лишь коллекционированием и каталогизацией ссылок, присылаемых и публикуемых на форуме нашими читателями. Если вы являетесь правообладателем какого-либо представленного материала и не желаете, чтобы ссылка на него находилась в нашем каталоге, свяжитесь с нами, и мы незамедлительно удалим ее. Файлы для обмена на трекере предоставлены пользователями сайта, и администрация не несет ответственности за их содержание. Просьба не заливать файлы, защищенные авторскими правами, а также файлы нелегального содержания!