[ Сегодня идет свободное скачивание без начисления Download ]


Статистика раздачи
Нет
 
   
 
Top  
 
 

Информация о фильме
Оригинальное название: Молодёжка
Год выпуска: 2015
Жанр: Драма, спорт
Режиссёр: Сергей Арланов
В ролях: Серафима Низовская, Владимир Зайцев, Сергей Габриэлян, Денис Никифоров, Валентина Ананьина, Сергей Комаров, Михаил Жигалов, Фёдор Бондарчук, Анатолий Лобоцкий, Ксения Лаврова-Глинка, Макар Запорожский, Александр Соколовский, Влад Канопка, Илья Коробко, Игорь Огурцов, Анна Михайловская, Иван Жвакин, Мария Иващенко, Николай Добрынин, Игорь Арташонов, Андрей Новиков, Виктория Таранец, Ольга Стрелецкая, Андрей Харыбин, Екатерина Молоховская, Нина Есина, Егор Федотов, Юлия Маргулис, Иван Дубровский, Владимир Чуприков, Иван Мулин
О фильме:
Молодежная хоккейная лига или «молодежка» — соревнование, в котором выступают молодежные команды, составленные из игроков в возрасте от 17 до 21 года. Именно чемпионат «молодежки» обеспечивает КХЛ (Континентальную Хоккейную Лигу) «свежей кровью» — талантливыми молодыми хоккеистами. «Медведи» никогда не были топ-командой молодежной лиги. Вратарь слишком умный, защита слишком вялая, а лидеры только и делают, что тянут одеяло на себя. Они умеют вместе выходить на площадку, но еще не умеют вместе играть... Но теперь все будет по-другому — за команду берется молодой тренер Сергей Макеев (Денис Никифоров). Когда-то он был звездой НХЛ, но после травмы завершил карьеру игрока и вернулся на родину. Перед новоиспеченным тренером стоит невыполнимая задача — выиграть чемпионат и создать команду первоклассных хоккеистов. Макеев должен превратить ребят в самых настоящих «медведей», которые порвут всех на пути к победе…Только сделать это совсем не просто, ведь у его игроков совсем другие интересы — учеба, друзья и, конечно, девушки. Да и менеджмент клуба не особо рад приходу слишком активного тренера...

Выпущено: Россия, ООО Арт Пикчерс Вижн при поддержке КХЛ
Продолжительность: ~ 00:46:00 / Серия
Перевод: Не требуется
Файл
Качество: WEB-DLRip
Видео: XviD, 704x400 (16:9), ~ 1800 Кбит/с, 25 кадр/с, 0.246 bit/pixel
Аудио: Русский, MP3, 48000 Гц, 128 Кбит/с, 2 канала (Стерео)

Раздача ведётся путём добавления новых серий

Внимание! Раздача ведётся путём добавления новых серий; при каждом добавлении создётся новый торрент. Чтобы начать докачку новой серии, пользователям необходимо сделать следующее:
(1) остановить скачивание,
(2) удалить старый торрент у себя из клиента (старые серии удалять не надо),
(3) скачать новый торрент и запустить его у себя в клиенте вместо старого, при этом указать клиенту путь в старую папку куда и должно происходить скачивание новых серий.
Ваш клиент при этом должен произвести хеширование (проверку) старой папки (если не производит сам - помогите ему сделать это), и будет докачивать только те серии которых у вас ещё нет. Старые серии при этом не удаляются, а продолжают раздаваться!
Eсли вы уже удалили старые серии, то предотвратить повторную закачку старых серий можно, отжав галочку в соответсвующих местах при запуске нового торрента. По возможности, желательно не удалять старые серии как можно дольше чтобы релизёр не столько продолжал раздавать старые серии, а смог сконцентрироваться на новых.

MediaInfo исходника

Complete name : 370851-2015-11-02-16-38-51-330.mp4
Format : Flash Video
File size : 1.19 GiB
Duration : 46mn 43s
Overall bit rate : 3 642 Kbps
Format : AVC
Format/Info : Advanced Video Codec
Format profile : High@L4.1
Format settings, CABAC : Yes
Format settings, ReFrames : 5 frames
Codec ID : 7
Duration : 46mn 43s
Nominal bit rate : 3 500 Kbps
Width : 1 280 pixels
Height : 720 pixels
Display aspect ratio : 16:9
Frame rate mode : Constant
Frame rate : 25.000 fps
Color space : YUV
Chroma subsampling : 4:2:0
Bit depth : 8 bits
Scan type : Progressive
Bits/(Pixel*Frame) : 0.152
Writing library : x264 core 142
Encoding settings : cabac=1 / ref=5 / deblock=1:0:0 / analyse=0x3:0x113 / me=umh / subme=8 / psy=1 / psy_rd=1.00:0.00 / mixed_ref=1 / me_range=16 / chroma_me=1 / trellis=1 / 8x8dct=1 / cqm=0 / deadzone=21,11 / fast_pskip=1 / chroma_qp_offset=-2 / threads=1 / lookahead_threads=1 / sliced_threads=0 / nr=0 / decimate=1 / interlaced=0 / bluray_compat=0 / constrained_intra=0 / bframes=3 / b_pyramid=2 / b_adapt=2 / b_bias=0 / direct=3 / weightb=1 / open_gop=0 / weightp=2 / keyint=100 / keyint_min=25 / scenecut=40 / intra_refresh=0 / rc_lookahead=50 / rc=abr / mbtree=1 / bitrate=3500 / ratetol=1.0 / qcomp=0.60 / qpmin=0 / qpmax=69 / qpstep=4 / ip_ratio=1.40 / aq=1:1.00
Format : AAC
Format/Info : Advanced Audio Codec
Format profile : LC
Codec ID : 10
Duration : 46mn 43s
Channel count : 2 channels
Channel positions : Front: L R
Sampling rate : 44.1 KHz
Compression mode : Lossy

MediaInfo

General
Complete name : Molodjozhka.s03.e01.WEB-DLRip.avi
Format : AVI
Format/Info : Audio Video Interleave
File size : 651 MiB
Duration : 48mn 35s
Overall bit rate : 1 872 Kbps
Writing application : VirtualDubMod 1.5.10.3 | www.virtualdub-fr.org || (build 2550/release)
Writing library : VirtualDubMod build 2550/release
Video
ID : 0
Format : MPEG-4 Visual
Format profile : Advanced Simple@L5
Format settings, BVOP : 1
Format settings, QPel : No
Format settings, GMC : No warppoints
Format settings, Matrix : Custom
Codec ID : XVID
Codec ID/Hint : XviD
Duration : 48mn 35s
Bit rate : 1 735 Kbps
Width : 704 pixels
Height : 400 pixels
Display aspect ratio : 16:9
Frame rate : 25.000 fps
Color space : YUV
Chroma subsampling : 4:2:0
Bit depth : 8 bits
Scan type : Progressive
Compression mode : Lossy
Bits/(Pixel*Frame) : 0.246
Stream size : 603 MiB (93%)
Writing library : XviD 73
Audio
ID : 1
Format : MPEG Audio
Format version : Version 1
Format profile : Layer 3
Codec ID : 55
Codec ID/Hint : MP3
Duration : 48mn 35s
Bit rate mode : Constant
Bit rate : 128 Kbps
Channel(s) : 2 channels
Sampling rate : 48.0 KHz
Compression mode : Lossy
Stream size : 44.5 MiB (7%)
Alignment : Aligned on interleaves
Interleave, duration : 40 ms (1.00 video frame)
Interleave, preload duration : 504 ms
Writing library : LAME3.99r
Encoding settings : -m s -V 4 -q 5 -lowpass 17 -b 128

Скриншоты

Автор рипа - ivandubskoj

[Цитировать]



Показать сообщения:    

Текущее время: 07-Дек 23:19

Часовой пояс: UTC + 3


Вы не можете начинать темы
Вы не можете отвечать на сообщения
Вы не можете редактировать свои сообщения
Вы не можете удалять свои сообщения
Вы не можете голосовать в опросах
Вы не можете прикреплять файлы к сообщениям
Вы не можете скачивать файлы

!ВНИМАНИЕ!
Сайт не предоставляет электронные версии произведений, а занимается лишь коллекционированием и каталогизацией ссылок, присылаемых и публикуемых на форуме нашими читателями. Если вы являетесь правообладателем какого-либо представленного материала и не желаете, чтобы ссылка на него находилась в нашем каталоге, свяжитесь с нами, и мы незамедлительно удалим ее. Файлы для обмена на трекере предоставлены пользователями сайта, и администрация не несет ответственности за их содержание. Просьба не заливать файлы, защищенные авторскими правами, а также файлы нелегального содержания!